Ивановский Торрент трекер
Яндекс.Погода
 

[Цитировать]
HUNTER

Приключения мистера Пибоди и Шермана / Mr. Peabody & Sherman«Наперегонки с историей»- Страна: США
Жанр: фантастика, комедия, приключения, семейный
Продолжительность: 01:32:29
Год выпуска: 2014
Перевод: Профессиональный (дублированный) Blu-ray CEE
Русские субтитры: есть SRT
Режиссёр: Роб Минкофф / Rob Minkoff
Роли озвучивали: Тай Бурелл, Макс Чарльз, Эриель Винтер, Стефен Колбер, Лесли Манн, Эллисон Дженни, Стэнли Туччи, Том МакГрат, Лэйк Белл, Зак Каллисон
Роли дублировали: Леонид Парфенов (отлично озвучил), Анна Денисова, Илья Исаев, Сергей Чихачев, Максим Чихачев-ОписаниеМистер Пибоди — бизнесмен, изобретатель, ученый, нобелевский лауреат, гурман, двукратный олимпийский чемпион и гений… который кроме всего прочего является собакой. При помощи своего самого неординарного изобретения — машины ВЕЙБЕК — мистер Пибоди и его приемный сын Шерман мгновенно перемещаются в прошлое, где становятся свидетелями самых важных исторических событий и общаются с известными историческими персонажами. Но когда Шерман нарушает правила путешествий во времени, нашим героям приходится вновь отправиться в путь — на сей раз с целью восстановления цепи исторических событий и спасения будущего. Кроме того, мистеру Пибоди предстоит справиться с самой сложной для него задачей — стать настоящим отцом для Шермана.-Сэмпл

IMDb: 7.00 (17 296)
Качество: BDRip-AVC Blu-ray Disc 1080p HDclub
Формат: MKV
Видео: AVC 2610 Kbps 1008 x 546 (1.846) 23.976 fps
Аудио: AC-3 384 Kbps 6 channels, 48.0 KHz Rus DUB Blu-ray CEE
Аудио 2: AC-3 ES 384 Kbps 6 channels, 48.0 KHz Eng
Субтитры: русские (полные, форсированные), английские (обычные, Colored, SDH, SDH-Colored), украинские (полные, форсированные)

MI | Log

Log
raw [info]: 1008x546p 1:1 @ 24000/1001 fps (cfr)
x264 [info]: using SAR=1/1
x264 [info]: using cpu capabilities: MMX2 SSE2Fast SSSE3 SSE4.2 AVX
x264 [info]: profile High, level 4.1
x264 [info]: frame I:1164 Avg QP:13.73 size: 91452
x264 [info]: frame P:40018 Avg QP:17.84 size: 25590
x264 [info]: frame B:91873 Avg QP:22.39 size: 7401
x264 [info]: consecutive B-frames: 7.0% 6.2% 16.0% 41.0% 14.1% 11.7% 1.9% 0.9% 1.2%
x264 [info]: mb I I16..4: 11.1% 51.9% 37.0%
x264 [info]: mb P I16..4: 2.5% 11.5% 3.5% P16..4: 27.6% 28.8% 10.9% 3.1% 0.6% skip:11.5%
x264 [info]: mb B I16..4: 0.4% 1.7% 0.6% B16..8: 31.4% 16.3% 3.0% direct: 3.1% skip:43.5% L0:42.6% L1:43.2% BI:14.2%
x264 [info]: 8x8 transform intra:63.9% inter:52.3%
x264 [info]: direct mvs spatial:91.4% temporal:8.6%
x264 [info]: coded y,uvDC,uvAC intra: 69.7% 77.2% 55.4% inter: 15.2% 15.9% 7.5%
x264 [info]: i16 v,h,dc,p: 27% 16% 4% 53%
x264 [info]: i8 v,h,dc,ddl,ddr,vr,hd,vl,hu: 14% 11% 8% 8% 11% 11% 12% 11% 14%
x264 [info]: i4 v,h,dc,ddl,ddr,vr,hd,vl,hu: 23% 11% 8% 7% 11% 10% 11% 8% 10%
x264 [info]: i8c dc,h,v,p: 30% 32% 20% 18%
x264 [info]: Weighted P-Frames: Y:2.3% UV:1.7%
x264 [info]: ref P L0: 51.9% 8.2% 14.2% 6.9% 4.4% 4.1% 2.8% 2.0% 1.4% 1.4% 1.1% 1.3% 0.3% 0.0%
x264 [info]: ref B L0: 74.2% 9.6% 6.4% 2.6% 2.1% 1.4% 1.4% 0.9% 0.8% 0.4% 0.2%
x264 [info]: ref B L1: 91.6% 8.4%
x264 [info]: kb/s:2609.89
x264 [total]: encoded 133055 frames, 10.28 fps, 2609.89 kb/s
Format                                   : MatroskaFormat version                           : Version 4 / Version 2File size                                : 2.18 GiBDuration                                 : 1h 32mnOverall bit rate                         : 3 381 KbpsEncoded date                             : UTC 2014-08-04 11:10:50Writing application                      : mkvmerge v6.7.0 ('Back to the Ground') 32bit built on Jan  8 2014 15:03:17Writing library                          : libebml v1.3.0 + libmatroska v1.4.1
VideoID : 1Format : AVCFormat/Info : Advanced Video CodecFormat profile : High@L4.1Format settings, CABAC : YesFormat settings, ReFrames : 12 framesCodec ID : V_MPEG4/ISO/AVCDuration : 1h 32mnBit rate : 2 610 KbpsWidth : 1 008 pixelsHeight : 546 pixelsDisplay aspect ratio : 1.85:1Frame rate mode : ConstantFrame rate : 23.976 fpsColor space : YUVChroma subsampling : 4:2:0Bit depth : 8 bitsScan type : ProgressiveBits/(Pixel*Frame) : 0.198Stream size : 1.64 GiB (75%)Writing library : x264 core 142 r2453 ea0ca51Encoding settings : cabac=1 / ref=12 / deblock=1:-2:-1 / analyse=0x3:0x133 / me=umh / subme=11 / psy=1 / psy_rd=1.00:0.05 / mixed_ref=1 / me_range=32 / chroma_me=1 / trellis=2 / 8x8dct=1 / cqm=0 / deadzone=21,11 / fast_pskip=0 / chroma_qp_offset=-3 / threads=12 / lookahead_threads=2 / sliced_threads=0 / nr=0 / decimate=1 / interlaced=0 / bluray_compat=0 / constrained_intra=0 / bframes=8 / b_pyramid=2 / b_adapt=2 / b_bias=0 / direct=3 / weightb=1 / open_gop=0 / weightp=2 / keyint=250 / keyint_min=23 / scenecut=40 / intra_refresh=0 / rc_lookahead=60 / rc=2pass / mbtree=1 / bitrate=2610 / ratetol=1.0 / qcomp=0.60 / qpmin=0 / qpmax=69 / qpstep=4 / cplxblur=20.0 / qblur=0.5 / ip_ratio=1.40 / aq=1:1.00Language : EnglishDefault : YesForced : No
Audio #1ID : 2Format : AC-3Format/Info : Audio Coding 3Mode extension : CM (complete main)Format settings, Endianness : BigCodec ID : A_AC3Duration : 1h 32mnBit rate mode : ConstantBit rate : 384 KbpsChannel(s) : 6 channelsChannel positions : Front: L C R, Side: L R, LFESampling rate : 48.0 KHzBit depth : 16 bitsCompression mode : LossyStream size : 254 MiB (11%)Title : DUB Blu-ray CEELanguage : RussianDefault : YesForced : No
Audio #2ID : 3Format : AC-3Format/Info : Audio Coding 3Mode extension : CM (complete main)Format settings, Endianness : BigCodec ID : A_AC3Duration : 1h 32mnBit rate mode : ConstantBit rate : 384 KbpsChannel(s) : 6 channelsChannel positions : Front: L C R, Side: L R, LFESampling rate : 48.0 KHzBit depth : 16 bitsCompression mode : LossyStream size : 254 MiB (11%)Title : Original ESLanguage : EnglishDefault : NoForced : No
Text #1ID : 4Format : UTF-8Codec ID : S_TEXT/UTF8Codec ID/Info : UTF-8 Plain TextTitle : ForcedLanguage : RussianDefault : YesForced : No
Text #2ID : 5Format : UTF-8Codec ID : S_TEXT/UTF8Codec ID/Info : UTF-8 Plain TextTitle : FullLanguage : RussianDefault : NoForced : No
Text #3ID : 6Format : UTF-8Codec ID : S_TEXT/UTF8Codec ID/Info : UTF-8 Plain TextTitle : FullLanguage : EnglishDefault : NoForced : No
Text #4ID : 7Format : UTF-8Codec ID : S_TEXT/UTF8Codec ID/Info : UTF-8 Plain TextTitle : SDHLanguage : EnglishDefault : NoForced : No
Text #5ID : 8Format : UTF-8Codec ID : S_TEXT/UTF8Codec ID/Info : UTF-8 Plain TextTitle : SDH-ColoredLanguage : EnglishDefault : NoForced : No
Text #6ID : 9Format : UTF-8Codec ID : S_TEXT/UTF8Codec ID/Info : UTF-8 Plain TextTitle : ForcedLanguage : UkrainianDefault : NoForced : No
Text #7ID : 10Format : UTF-8Codec ID : S_TEXT/UTF8Codec ID/Info : UTF-8 Plain TextTitle : FullLanguage : UkrainianDefault : NoForced : No
Menu00:00:00.000 : en:00:00:00.00000:03:48.061 : en:00:03:48.06100:07:12.223 : en:00:07:12.22300:11:02.495 : en:00:11:02.49500:13:30.018 : en:00:13:30.01800:17:29.465 : en:00:17:29.46500:21:48.516 : en:00:21:48.51600:26:39.306 : en:00:26:39.30600:28:40.177 : en:00:28:40.17700:30:53.101 : en:00:30:53.10100:33:57.452 : en:00:33:57.45200:35:29.919 : en:00:35:29.91900:37:47.182 : en:00:37:47.18200:41:27.652 : en:00:41:27.65200:44:47.685 : en:00:44:47.68500:48:16.352 : en:00:48:16.35200:51:48.981 : en:00:51:48.98100:54:56.543 : en:00:54:56.54300:58:32.801 : en:00:58:32.80101:00:49.187 : en:01:00:49.18701:02:53.186 : en:01:02:53.18601:04:39.084 : en:01:04:39.08401:08:22.265 : en:01:08:22.26501:11:13.728 : en:01:11:13.72801:14:52.655 : en:01:14:52.65501:20:27.448 : en:01:20:27.44801:21:40.312 : en:01:21:40.31201:22:39.580 : en:01:22:39.580

Скриншоты

Показать сообщения:    

Текущее время: 19-Сен 12:41

Часовой пояс: UTC - 1


Вы не можете начинать темы
Вы не можете отвечать на сообщения
Вы не можете редактировать свои сообщения
Вы не можете удалять свои сообщения
Вы не можете голосовать в опросах
Вы не можете прикреплять файлы к сообщениям
Вы не можете скачивать файлы

!ВНИМАНИЕ!
Сайт не предоставляет электронные версии произведений, а занимается лишь коллекционированием и каталогизацией ссылок, присылаемых и публикуемых на форуме нашими читателями. Если вы являетесь правообладателем какого-либо представленного материала и не желаете, чтобы ссылка на него находилась в нашем каталоге, свяжитесь с нами, и мы незамедлительно удалим ее. Файлы для обмена на трекере предоставлены пользователями сайта, и администрация не несет ответственности за их содержание. Просьба не заливать файлы, защищенные авторскими правами, а также файлы нелегального содержания!