Важное объявление!
У Нас Все раздачи мультитрекерные, при нуле пиров в релизах, можете смело вставать на закачку!
 
Автор Сообщение

HUNTER

Стаж:
4 года 10 месяцев
Сообщений:
65557

Репутация: 101

[+] [-]
Вне форума [Профиль] [ЛС]

Приключения мистера Пибоди и Шермана / Mr. Peabody & Sherman
Страна: США
Жанр: Мультфильм, Фантастика
Продолжительность: 01:32:29
Год выпуска: 2014
Режиссёр: Роб Минкофф / Rob Minkoff
Перевод: Профессиональный (дублированный)
Роли дублировали: Леонид Парфенов, Анна Денисова, Илья Исаев, Сергей Чихачев, Максим Чихачев, Владимир Антоник, Никита Прозоровский, Ирина Савина, Елена Шульман, Олег Форостенко, Ирина Киреева, Василий Дахненко, Борис Быстров
Описание: Мистер Пибоди - бизнесмен, изобретатель, ученый, нобелевский лауреат, гурман, двукратный олимпийский чемпион и гений, который кроме всего прочего является собакой. При помощи своего самого неординарного изобретения - машины ВЕЙБЕК - мистер Пибоди и его приемный сын Шерман мгновенно перемещаются в прошлое, где становятся свидетелями самых важных исторических событий и общаются с известными историческими персонажами. Но когда Шерман нарушает правила путешествий во времени, нашим героям приходится вновь отправиться в путь - на сей раз с целью восстановления цепи исторических событий и спасения будущего. Кроме того, мистеру Пибоди предстоит справиться с самой сложной для него задачей - стать настоящим отцом для Шермана...
Доп. информация: Исходник - BDRemux / Кинозал / tolyaba / 20,51Гб

Формат: AVI
Качество: BDRip (BDRemux)
Видео кодек: XviD
Аудио кодек: MP3
Видео: XviD, 656x352, 23.976fps, 991kbps
Аудио: MPEG Layer 3, 2ch, 48000Hz, 128kbps

MediaInfo

General
Complete name : Pibodi.I.Sherman.2014.D.BDRip.700.MediaClub.CurHaJI.avi
Format : AVI
Format/Info : Audio Video Interleave
File size : 747 MiB
Duration : 1h 32mn
Overall bit rate : 1 129 Kbps
Movie name : Pibodi.I.Sherman.2014.D.BDRip.700.MediaClub.CurHaJI
Writing application : Lavf53.13.0
Writing library : VirtualDub build 35491/release
Video
ID : 0
Format : MPEG-4 Visual
Format profile : Advanced Simple@L5
Format settings, BVOP : 1
Format settings, QPel : No
Format settings, GMC : No warppoints
Format settings, Matrix : Custom
Codec ID : XVID
Codec ID/Hint : XviD
Duration : 1h 32mn
Bit rate : 991 Kbps
Width : 656 pixels
Height : 352 pixels
Display aspect ratio : 1.85:1
Frame rate : 23.976 fps
Color space : YUV
Chroma subsampling : 4:2:0
Bit depth : 8 bits
Scan type : Progressive
Compression mode : Lossy
Bits/(Pixel*Frame) : 0.179
Stream size : 656 MiB (88%)
Writing library : XviD 1.2.1 (UTC 2008-12-04)
Audio
ID : 1
Format : MPEG Audio
Format version : Version 1
Format profile : Layer 3
Codec ID : 55
Codec ID/Hint : MP3
Duration : 1h 32mn
Bit rate mode : Constant
Bit rate : 128 Kbps
Channel(s) : 2 channels
Sampling rate : 48.0 KHz
Compression mode : Lossy
Stream size : 84.7 MiB (11%)
Alignment : Split accross interleaves
Interleave, duration : 42 ms (1.00 video frame)
Interleave, preload duration : 500 ms
Writing library : L3.99r
Encoding settings : -m s -V 4 -q 2 -lowpass 17 -b 128

Скриншоты


_________________
Показать сообщения:    

Текущее время: Сегодня 17:29

Часовой пояс: GMT



Вы не можете начинать темы
Вы не можете отвечать на сообщения
Вы не можете редактировать свои сообщения
Вы не можете удалять свои сообщения
Вы не можете голосовать в опросах
Вы не можете прикреплять файлы к сообщениям
Вы не можете скачивать файлы