Ивановский Торрент трекер
Яндекс.Погода
 

[Цитировать]
HUNTER

Приключения мистера Пибоди и Шермана
Mr. Peabody & Sherman
«Наперегонки с историей» Год выпуска: 2014
Страна: США
Жанр: мультфильм, фантастика, комедия, приключения, семейный
Продолжительность: 01:33:07
Перевод: Профессиональный (Дублированный) - iTunes
русские субтитры: есть-Режиссёр: Роб Минкофф : Rob Minkoff-Роли озвучивали: Тай Бурелл, Макс Чарльз, Эриель Винтер, Стефен Колбер, Лесли Манн, Эллисон Дженни, Стэнли Туччи, Том МакГрат, Лэйк Белл, Зак Каллисон
Роли дублировали: Леонид Парфенов, Анна Денисова, Илья Исаев, Сергей Чихачев, Максим Чихачев-Описание: Мистер Пибоди — бизнесмен, изобретатель, ученый, нобелевский лауреат, гурман, двукратный олимпийский чемпион и гений… который кроме всего прочего является собакой. При помощи своего самого неординарного изобретения — машины ВЕЙБЕК — мистер Пибоди и его приемный сын Шерман мгновенно перемещаются в прошлое, где становятся свидетелями самых важных исторических событий и общаются с известными историческими персонажами. Но когда Шерман нарушает правила путешествий во времени, нашим героям приходится вновь отправиться в путь — на сей раз с целью восстановления цепи исторических событий и спасения будущего. Кроме того, мистеру Пибоди предстоит справиться с самой сложной для него задачей — стать настоящим отцом для Шермана.- релиз: -Качество: WEB-DL 1080p
Формат: MKV
Видео кодек: AVC
Аудио кодек: AC3
Видео: 1916x1036 , 23,976 fps, ~4785 kbps avg, 0.101 bit/pixel
Аудио #1: [RUS] 48 kHz, AC3, 3/2 (L,C,R,l,r) + LFE ch, ~384.00 kbps avg - /DUB/ iTunes
Аудио #2: [UKR] 48 kHz, AC3 Dolby Digital, 2/0 (L,R) ch, ~192 kbps kbps avg
Аудио #3: [ENG] 48 kHz, AC3 Dolby Digital, 2/0 (L,R) ch, ~192 kbps kbps avg
субтитры: русские (forced, full), украинские (forced, full), английские (full)
навигация по главам: 28 глав MediaInfo
Общее
Уникальный идентификатор : 196778719827054240892399636800112205737 (0x940A33F0D0E756CA95B577788A4C9FA9)
Полное имя : D:\Im\Приключения мистера Пибоди и Шермана\Mr. Peabody & Sherman.2014.WEB-DL 1080p.mkv
Формат : Matroska
Версия формата : Version 4 / Version 2
Размер файла : 3,69 Гбайт
Продолжительность : 1 ч. 33 м.
Общий поток : 5665 Кбит/сек
Название фильма : Mr. Peabody & Sherman.2014.WEB-DL 1080p -Azureus-
Дата кодирования : UTC 2014-06-06 11:00:20
Программа кодирования : mkvmerge v6.9.1 ('Blue Panther') 32bit built on Apr 18 2014 18:15:44
Библиотека кодирования : libebml v1.3.0 + libmatroska v1.4.1
Видео
Идентификатор : 1
Формат : AVC
Формат/Информация : Advanced Video Codec
Профиль формата : High@L4.0
Параметр CABAC формата : Да
Параметр ReFrames формата : 4 кадра
Идентификатор кодека : V_MPEG4/ISO/AVC
Продолжительность : 1 ч. 33 м.
Битрейт : 4785 Кбит/сек
Ширина : 1916 пикселей
Высота : 1036 пикселей
Соотношение сторон : 1,85:1
Режим частоты кадров : Постоянный
Частота кадров : 23,976 кадра/сек
Цветовое пространство : YUV
Субдискретизация насыщенности : 4:2:0
Битовая глубина : 8 бит
Тип развёртки : Прогрессивная
Бит/(Пиксели*Кадры) : 0.101
Размер потока : 3,11 Гбайт (84%)
Язык : English
Default : Да
Forced : Нет
Основные цвета : BT.709
Характеристики трансфера : BT.709
Коэффициенты матрицы : BT.709
Аудио #1
Идентификатор : 2
Формат : AC-3
Формат/Информация : Audio Coding 3
Расширение режима : CM (complete main)
Параметр Endianness формата : Big
Идентификатор кодека : A_AC3
Продолжительность : 1 ч. 33 м.
Вид битрейта : Постоянный
Битрейт : 384 Кбит/сек
Каналы : 6 каналов
Расположение каналов : Front: L C R, Side: L R, LFE
Частота : 48,0 КГц
Битовая глубина : 16 бит
Метод сжатия : С потерями
Размер потока : 256 Мбайт (7%)
Заголовок : DUB - iTunes
Язык : Russian
Default : Да
Forced : Нет
Аудио #2
Идентификатор : 3
Формат : AC-3
Формат/Информация : Audio Coding 3
Расширение режима : CM (complete main)
Параметр Endianness формата : Big
Идентификатор кодека : A_AC3
Продолжительность : 1 ч. 33 м.
Вид битрейта : Постоянный
Битрейт : 192 Кбит/сек
Каналы : 2 канала
Расположение каналов : Front: L R
Частота : 48,0 КГц
Битовая глубина : 16 бит
Метод сжатия : С потерями
Размер потока : 128 Мбайт (3%)
Заголовок : UKR
Язык : Ukrainian
Default : Нет
Forced : Нет
Аудио #3
Идентификатор : 4
Формат : AC-3
Формат/Информация : Audio Coding 3
Расширение режима : CM (complete main)
Параметр Endianness формата : Big
Идентификатор кодека : A_AC3
Продолжительность : 1 ч. 33 м.
Вид битрейта : Постоянный
Битрейт : 192 Кбит/сек
Каналы : 2 канала
Расположение каналов : Front: L R
Частота : 48,0 КГц
Битовая глубина : 16 бит
Метод сжатия : С потерями
Размер потока : 128 Мбайт (3%)
Заголовок : ENG
Язык : English
Default : Нет
Forced : Нет
Текст #1
Идентификатор : 5
Формат : UTF-8
Идентификатор кодека : S_TEXT/UTF8
Идентификатор кодека/Информация : UTF-8 Plain Text
Заголовок : Rus Sub -full
Язык : Russian
Default : Нет
Forced : Нет
Текст #2
Идентификатор : 6
Формат : UTF-8
Идентификатор кодека : S_TEXT/UTF8
Идентификатор кодека/Информация : UTF-8 Plain Text
Заголовок : Rus Sub -forced
Язык : Russian
Default : Нет
Forced : Нет
Текст #3
Идентификатор : 7
Формат : UTF-8
Идентификатор кодека : S_TEXT/UTF8
Идентификатор кодека/Информация : UTF-8 Plain Text
Заголовок : Ukr Sub- full
Язык : Ukrainian
Default : Нет
Forced : Нет
Текст #4
Идентификатор : 8
Формат : UTF-8
Идентификатор кодека : S_TEXT/UTF8
Идентификатор кодека/Информация : UTF-8 Plain Text
Заголовок : Ukr Sub- forced
Язык : Ukrainian
Default : Нет
Forced : Нет
Текст #5
Идентификатор : 9
Формат : UTF-8
Идентификатор кодека : S_TEXT/UTF8
Идентификатор кодека/Информация : UTF-8 Plain Text
Заголовок : Eng Sub - full
Язык : English
Default : Нет
Forced : Нет
Меню
00:00:00.000 : en:00:00:00.000
00:03:46.000 : en:00:03:46.000
00:07:10.000 : en:00:07:10.000
00:11:00.000 : en:00:11:00.000
00:13:28.000 : en:00:13:28.000
00:17:27.000 : en:00:17:27.000
00:21:46.000 : en:00:21:46.000
00:26:36.000 : en:00:26:36.000
00:28:37.000 : en:00:28:37.000
00:30:50.000 : en:00:30:50.000
00:33:54.000 : en:00:33:54.000
00:35:26.000 : en:00:35:26.000
00:37:43.000 : en:00:37:43.000
00:41:24.000 : en:00:41:24.000
00:44:44.000 : en:00:44:44.000
00:48:12.000 : en:00:48:12.000
00:51:44.000 : en:00:51:44.000
00:54:52.000 : en:00:54:52.000
00:58:28.000 : en:00:58:28.000
01:00:44.000 : en:01:00:44.000
01:02:48.000 : en:01:02:48.000
01:04:34.000 : en:01:04:34.000
01:08:17.000 : en:01:08:17.000
01:11:08.000 : en:01:11:08.000
01:14:47.000 : en:01:14:47.000
01:20:21.000 : en:01:20:21.000
01:21:34.000 : en:01:21:34.000
01:22:33.000 : en:01:22:33.000
____________________________________________
Стою на раздаче до 5 дней.
Просьба скачавшим как можно дольше не покидать раздачу!
ВСЕМ ПРИЯТНОГО ПРОСМОТРА!_________________________________________
Показать сообщения:    

Текущее время: 20-Сен 10:17

Часовой пояс: UTC - 1


Вы не можете начинать темы
Вы не можете отвечать на сообщения
Вы не можете редактировать свои сообщения
Вы не можете удалять свои сообщения
Вы не можете голосовать в опросах
Вы не можете прикреплять файлы к сообщениям
Вы не можете скачивать файлы

!ВНИМАНИЕ!
Сайт не предоставляет электронные версии произведений, а занимается лишь коллекционированием и каталогизацией ссылок, присылаемых и публикуемых на форуме нашими читателями. Если вы являетесь правообладателем какого-либо представленного материала и не желаете, чтобы ссылка на него находилась в нашем каталоге, свяжитесь с нами, и мы незамедлительно удалим ее. Файлы для обмена на трекере предоставлены пользователями сайта, и администрация не несет ответственности за их содержание. Просьба не заливать файлы, защищенные авторскими правами, а также файлы нелегального содержания!