Важное объявление!
У Нас Все раздачи мультитрекерные, при нуле пиров в релизах, можете смело вставать на закачку!
 
Автор Сообщение

HUNTER

Стаж:
4 года 6 месяцев
Сообщений:
60910

Репутация: 101

[+] [-]
Вне форума [Профиль] [ЛС]

| Все релизы мультфильма || BDRemux 1080p, 23.26 GB |- P R E S E N T SПриключения мистера Пибоди и Шермана / Mr. Peabody & Sherman-
Страна: США
Жанр: мультфильм, фантастика, комедия, приключения, семейный
Продолжительность: 01:32:30
Год выпуска: 2014
Перевод 1: Профессиональный (полное дублирование)
Перевод 2: Авторский (одноголосый закадровый) Юрий Живов
Субтитры: есть-Режиссёр: Роб Минкофф / Rob Minkoff
Роли озвучивали: Тай Бурелл, Макс Чарльз, Лаури Фрайзер, Гийом Аретос, Патрис А. Масик, Эриел Винтер, Каран Брэр, Джошуа Раш, Стефен Тоболовски, Эллисон Дженни, Деннис Хайсберт, Стефен Колберт, Лесли Манн, Зак Каллисон...
Роли дублировали: Леонид Парфенов, Никита Прозоровский, Анна Денисова, Александра Назарова, Борис Быстров, Елена Шульман, Ирина Савина, Илья Исаев, Максим Чихачев, Владимир Антоник, Сергей Чихачев и др.- | | <- Рекомендуется присутствие родителей-Описание: Мистер Пибоди - бизнесмен, изобретатель, ученый, нобелевский лауреат, гурман, двукратный олимпийский чемпион и гений... который кроме всего прочего является собакой. При помощи своего самого неординарного изобретения - машины ВЕЙБЕК - мистер Пибоди и его приемный сын Шерман мгновенно перемещаются в прошлое, где становятся свидетелями самых важных исторических событий и общаются с известными историческими персонажами. Но когда Шерман нарушает правила путешествий во времени, нашим героям приходится вновь отправиться в путь - на сей раз с целью восстановления цепи исторических событий и спасения будущего. Кроме того, мистеру Пибоди предстоит справиться с самой сложной для него задачей - стать настоящим отцом для Шермана...-Доп. информация: BDRemux 1080p сделан с Blu-Ray диска Приключения мистера Пибоди и Шермана / Mr. Peabody & Sherman (2014) Blu-ray CEE 1080p AVC DTS 5.1.
Отдельное спасибо xfiles за подготовку русских и украинских субтитров.
Перевод Юрия Живова осуществлен в 2014 г. силами форума E180 по заказу: Савелий, Skoped, пуля, xerman13, Прагматик, chontvari, foxlight, vik19662007, MyxAmoP, olegSoleg.
-Сэмпл/Sample (311 MB, 1 минута)-Качество: BDRemux 1080p
Формат: MKV
Видео: 1920x1080 (1.778:1), 23,976 fps, ~25186 kbps avg, 0.506 bit/pixel
Аудио #1: Русский, DTS / 5.1 / 48 kHz / 768 kbps / 24-bit - Полное дублирование
Аудио #2: Русский, DTS-HD MA / 7.1 / 48 kHz / 4905 kbps / 24-bit (DTS Core: 5.1-ES / 48 kHz / 1509 kbps / 24-bit) - AVO | Юрий Живов
Аудио #3: Украинский, AC3, 6 ch, 48 kHz, 448 kbps - Полное дублирование
Аудио #4: English, DTS-HD MA / 7.1 / 48 kHz / 4825 kbps / 24-bit (DTS Core: 5.1-ES / 48 kHz / 1509 kbps / 24-bit) - Original
Субтитры: Русские (полные, форсированные), Украинские (полные, форсированные), English (Full, SDH)
Навигация по главам: есть (28 не именованных глав)

MediaInfo

GeneralUnique ID : 252607084484969978306307282854520858809 (0xBE0A5AD55017E14AAE9594BB6B10A8B9)Complete name : Mr.Peabody.and.Sherman.2014.BDRemux.1080p.dfcbit.mkvFormat : MatroskaFormat version : Version 2File size : 23.3 GiBDuration : 1h 32mnOverall bit rate mode : VariableOverall bit rate : 36.0 MbpsEncoded date : UTC 2014-09-17 16:59:27Writing application : mkvmerge v4.0.0 ('The Stars were mine') built on Jun 6 2010 16:18:42Writing library : libebml v1.0.0 + libmatroska v1.0.0
VideoID : 1Format : AVCFormat/Info : Advanced Video CodecFormat profile : High@L4.1Format settings, CABAC : YesFormat settings, ReFrames : 4 framesCodec ID : V_MPEG4/ISO/AVCDuration : 1h 32mnBit rate mode : VariableMaximum bit rate : 31.0 MbpsWidth : 1 920 pixelsHeight : 1 080 pixelsDisplay aspect ratio : 16:9Frame rate mode : ConstantFrame rate : 23.976 fpsColor space : YUVChroma subsampling : 4:2:0Bit depth : 8 bitsScan type : ProgressiveTitle : NTSC, 1920x1080 (1.778:1), Untached ~25186 kbps avg, BDRemux 1080p - tRuAVC & Multfilmy [DFCbit]Language : EnglishDefault : YesForced : No
Audio #1ID : 2Format : DTSFormat/Info : Digital Theater SystemsMode : 16Format settings, Endianness : BigCodec ID : A_DTSDuration : 1h 32mnBit rate mode : ConstantBit rate : 768 KbpsChannel(s) : 6 channelsChannel positions : Front: L C R, Side: L R, LFESampling rate : 48.0 KHzBit depth : 24 bitsCompression mode : LossyStream size : 508 MiB (2%)Title : DTS / 5.1 / 48 kHz / 768 kbps / 24-bit - Полное дублированиеLanguage : RussianDefault : YesForced : No
Audio #2ID : 3Format : DTSFormat/Info : Digital Theater SystemsFormat profile : MA / CoreMode : 16Format settings, Endianness : BigCodec ID : A_DTSDuration : 1h 32mnBit rate mode : VariableBit rate : 4 905 Kbps / 1 509 KbpsChannel(s) : 8 channels / 6 channelsChannel positions : Front: L C R, Side: L R, Back: L R, LFE / Front: L C R, Side: L R, LFESampling rate : 48.0 KHzBit depth : 24 bitsCompression mode : Lossless / LossyTitle : DTS-HD MA / 7.1 / 48 kHz / 4905 kbps / 24-bit - AVO | Юрий ЖивовLanguage : RussianDefault : NoForced : No
Audio #3ID : 4Format : AC-3Format/Info : Audio Coding 3Mode extension : CM (complete main)Format settings, Endianness : BigCodec ID : A_AC3Duration : 1h 32mnBit rate mode : ConstantBit rate : 448 KbpsChannel(s) : 6 channelsChannel positions : Front: L C R, Side: L R, LFESampling rate : 48.0 KHzBit depth : 16 bitsCompression mode : LossyStream size : 296 MiB (1%)Title : AC3, 6 ch, 48 kHz, 448 kbps - Полное дублированиеLanguage : UkrainianDefault : NoForced : No
Audio #4ID : 5Format : DTSFormat/Info : Digital Theater SystemsFormat profile : MA / CoreMode : 16Format settings, Endianness : BigCodec ID : A_DTSDuration : 1h 32mnBit rate mode : VariableBit rate : 4 825 Kbps / 1 509 KbpsChannel(s) : 8 channels / 6 channelsChannel positions : Front: L C R, Side: L R, Back: L R, LFE / Front: L C R, Side: L R, LFESampling rate : 48.0 KHzBit depth : 24 bitsCompression mode : Lossless / LossyTitle : DTS-HD MA / 7.1 / 48 kHz / 4825 kbps / 24-bit - OriginalLanguage : EnglishDefault : NoForced : No
Text #1ID : 6Format : UTF-8Codec ID : S_TEXT/UTF8Codec ID/Info : UTF-8 Plain TextTitle : ПолныеLanguage : RussianDefault : NoForced : No
Text #2ID : 7Format : UTF-8Codec ID : S_TEXT/UTF8Codec ID/Info : UTF-8 Plain TextTitle : ФорсированныеLanguage : RussianDefault : NoForced : No
Text #3ID : 8Format : UTF-8Codec ID : S_TEXT/UTF8Codec ID/Info : UTF-8 Plain TextTitle : ПолныеLanguage : UkrainianDefault : NoForced : No
Text #4ID : 9Format : UTF-8Codec ID : S_TEXT/UTF8Codec ID/Info : UTF-8 Plain TextTitle : ФорсированныеLanguage : UkrainianDefault : NoForced : No
Text #5ID : 10Format : UTF-8Codec ID : S_TEXT/UTF8Codec ID/Info : UTF-8 Plain TextTitle : FullLanguage : EnglishDefault : NoForced : No
Text #6ID : 11Format : UTF-8Codec ID : S_TEXT/UTF8Codec ID/Info : UTF-8 Plain TextTitle : (SDH)Language : EnglishDefault : NoForced : No
Menu00:00:00.000 : en:Chapter 100:03:48.645 : en:Chapter 200:07:12.223 : en:Chapter 300:11:02.495 : en:Chapter 400:13:30.018 : en:Chapter 500:17:29.465 : en:Chapter 600:21:48.516 : en:Chapter 700:26:39.306 : en:Chapter 800:28:40.177 : en:Chapter 900:30:53.101 : en:Chapter 1000:33:57.452 : en:Chapter 1100:35:29.919 : en:Chapter 1200:37:47.182 : en:Chapter 1300:41:27.652 : en:Chapter 1400:44:47.685 : en:Chapter 1500:48:16.352 : en:Chapter 1600:51:48.981 : en:Chapter 1700:54:56.543 : en:Chapter 1800:58:32.801 : en:Chapter 1901:00:49.187 : en:Chapter 2001:02:53.186 : en:Chapter 2101:04:39.084 : en:Chapter 2201:08:22.265 : en:Chapter 2301:11:13.728 : en:Chapter 2401:14:52.655 : en:Chapter 2501:20:27.448 : en:Chapter 2601:21:40.312 : en:Chapter 2701:22:39.580 : en:Chapter 28

Скриншоты

Скриншот с названием мультфильма
--BDRemux 1080p

Релиз от групп | and | -Данный релиз не будет воспроизводиться на бытовых плеерах не поддерживающих MKV и H.264Обсуждение релизов в AVC формате || Свежие AVC рипы

_________________
Показать сообщения:    

Текущее время: Сегодня 21:22

Часовой пояс: GMT



Вы не можете начинать темы
Вы не можете отвечать на сообщения
Вы не можете редактировать свои сообщения
Вы не можете удалять свои сообщения
Вы не можете голосовать в опросах
Вы не можете прикреплять файлы к сообщениям
Вы не можете скачивать файлы
Наши партнеры: интернет магазин Ивановского трикотажа textilla.ru