Важное объявление!
У Нас Все раздачи мультитрекерные, при нуле пиров в релизах, можете смело вставать на закачку!
Статистика раздачи
Размер:     |    Зарегистрирован:     |    Скачан:     |   
Нет
 
     
 
 
Автор Сообщение

HUNTER

Стаж:
5 лет
Сообщений:
68391

Репутация: 101

[+] [-]
Вне форума [Профиль] [ЛС]

| Все релизы мультфильма || BDRip-AVC, 3.03 GB |- P R E S E N T SПриключения мистера Пибоди и Шермана / Mr. Peabody & Sherman-
Страна: США
Жанр: мультфильм, фантастика, комедия, приключения, семейный
Продолжительность: 01:32:30
Год выпуска: 2014
Перевод: Профессиональный (полное дублирование)
Субтитры: есть-Режиссёр: Роб Минкофф / Rob Minkoff
Роли озвучивали: Тай Бурелл, Макс Чарльз, Лаури Фрайзер, Гийом Аретос, Патрис А. Масик, Эриел Винтер, Каран Брэр, Джошуа Раш, Стефен Тоболовски, Эллисон Дженни, Деннис Хайсберт, Стефен Колберт, Лесли Манн, Зак Каллисон...
Роли дублировали: Леонид Парфенов, Никита Прозоровский, Анна Денисова, Александра Назарова, Борис Быстров, Елена Шульман, Ирина Савина, Илья Исаев, Максим Чихачев, Владимир Антоник, Сергей Чихачев и др.- | | <- Рекомендуется присутствие родителей-Описание: Мистер Пибоди - бизнесмен, изобретатель, ученый, нобелевский лауреат, гурман, двукратный олимпийский чемпион и гений... который кроме всего прочего является собакой. При помощи своего самого неординарного изобретения - машины ВЕЙБЕК - мистер Пибоди и его приемный сын Шерман мгновенно перемещаются в прошлое, где становятся свидетелями самых важных исторических событий и общаются с известными историческими персонажами. Но когда Шерман нарушает правила путешествий во времени, нашим героям приходится вновь отправиться в путь - на сей раз с целью восстановления цепи исторических событий и спасения будущего. Кроме того, мистеру Пибоди предстоит справиться с самой сложной для него задачей - стать настоящим отцом для Шермана...-Доп. информация: BDRip-AVC 624p сделан с Blu-Ray диска Приключения мистера Пибоди и Шермана / Mr. Peabody & Sherman (2014) Blu-ray CEE 1080p AVC DTS 5.1.
Отдельное спасибо xfiles за подготовку русских и украинских субтитров.
-Сэмпл/Sample (36.41 MB, 1 минута)-Качество: BDRip-AVC
Формат: MKV
Видео: 1152x624 (1.846:1), 23,976 fps, ~3351 kbps avg, 0.194 bit/pixel
Аудио #1: Русский, AC3, 6 ch, 48 kHz, 448 kbps - Полное дублирование
Аудио #2: Украинский, AC3, 6 ch, 48 kHz, 448 kbps - Полное дублирование
Аудио #3: English, AC3 EX, 6 ch, 48 kHz, 448 kbps - Original
Субтитры: Русские (полные, форсированные), Украинские (полные, форсированные), English (Full, SDH)
Навигация по главам: есть (28 не именованных глав)

MediaInfo / x264Log

x264Log
raw [info]: 1152x624p 1:1 @ 24000/1001 fps (cfr)x264 [info]: using SAR=1/1x264 [info]: using cpu capabilities: MMX2 SSE2Fast SSSE3 SSE4.2 AVX XOP FMA4 FMA3 LZCNT BMI1x264 [info]: profile High, level 4.1x264 [info]: frame I:1013 Avg QP:14.30 size: 91821 PSNR Mean Y:48.82 U:50.98 V:50.75 Avg:49.38 Global:48.53x264 [info]: frame P:37945 Avg QP:16.34 size: 31847 PSNR Mean Y:47.50 U:49.76 V:49.43 Avg:48.06 Global:46.99x264 [info]: frame B:94097 Avg QP:20.06 size: 10872 PSNR Mean Y:46.76 U:49.32 V:48.82 Avg:47.36 Global:46.10x264 [info]: consecutive B-frames: 5.9% 5.4% 15.1% 36.2% 17.8% 14.9% 2.0% 0.7% 0.5% 0.3% 0.3% 0.1% 0.1% 0.1% 0.5%x264 [info]: mb I I16..4: 7.4% 60.8% 31.9%x264 [info]: mb P I16..4: 2.4% 15.7% 4.3% P16..4: 25.7% 27.8% 10.8% 2.4% 0.3% skip:10.6%x264 [info]: mb B I16..4: 0.5% 2.4% 0.5% B16..8: 30.5% 19.1% 3.4% direct: 3.7% skip:39.9% L0:41.8% L1:43.4% BI:14.8%x264 [info]: 8x8 transform intra:69.0% inter:53.5%x264 [info]: coded y,uvDC,uvAC intra: 75.8% 83.2% 67.5% inter: 15.8% 16.0% 6.5%x264 [info]: i16 v,h,dc,p: 38% 13% 4% 45%x264 [info]: i8 v,h,dc,ddl,ddr,vr,hd,vl,hu: 13% 14% 10% 8% 10% 10% 11% 10% 14%x264 [info]: i4 v,h,dc,ddl,ddr,vr,hd,vl,hu: 14% 14% 10% 8% 13% 11% 12% 8% 10%x264 [info]: i8c dc,h,v,p: 35% 29% 18% 17%x264 [info]: Weighted P-Frames: Y:2.7% UV:2.1%x264 [info]: ref P L0: 51.5% 8.0% 16.1% 6.6% 4.9% 3.7% 2.9% 1.7% 1.5% 1.4% 1.3% 0.3% 0.0%x264 [info]: ref B L0: 72.3% 11.4% 6.4% 2.9% 2.3% 1.7% 1.3% 0.8% 0.5% 0.3%x264 [info]: ref B L1: 91.9% 8.1%x264 [info]: SSIM Mean Y:0.9912066 (20.558db)x264 [info]: PSNR Mean Y:46.990 U:49.457 V:49.012 Avg:47.578 Global:46.349 kb/s:3350.89encoded 133055 frames, 8.09 fps, 3350.89 kb/s
GeneralUnique ID : 250214517077720988515391701024469885021 (0xBC3D90270FD9405EA1D0A5C86D5B205D)Complete name : Mr.Peabody.and.Sherman.2014.BDRip-AVC.624p.dfcbit.mkvFormat : MatroskaFormat version : Version 2File size : 3.03 GiBDuration : 1h 32mnOverall bit rate : 4 698 KbpsEncoded date : UTC 2014-09-13 05:48:47Writing application : mkvmerge v4.0.0 ('The Stars were mine') built on Jun 6 2010 16:18:42Writing library : libebml v1.0.0 + libmatroska v1.0.0
VideoID : 1Format : AVCFormat/Info : Advanced Video CodecFormat profile : High@L4.1Format settings, CABAC : YesFormat settings, ReFrames : 11 framesCodec ID : V_MPEG4/ISO/AVCDuration : 1h 32mnBit rate : 3 351 KbpsWidth : 1 152 pixelsHeight : 624 pixelsDisplay aspect ratio : 1.85:1Frame rate mode : ConstantFrame rate : 23.976 fpsColor space : YUVChroma subsampling : 4:2:0Bit depth : 8 bitsScan type : ProgressiveBits/(Pixel*Frame) : 0.194Stream size : 2.16 GiB (69%)Title : NTSC, 1152x624 (1.846:1), BDRip-AVC 624p - tRuAVC & Multfilmy [DFCbit]Writing library : x264 core 142 r2479kMod dd79a61Encoding settings : cabac=1 / ref=11 / deblock=1:-2:-1 / analyse=0x3:0x133 / me=umh / subme=11 / psy=1 / fade_compensate=0.00 / psy_rd=0.63:0.00 / mixed_ref=1 / me_range=32 / chroma_me=1 / trellis=2 / 8x8dct=1 / cqm=0 / deadzone=21,11 / fast_pskip=0 / chroma_qp_offset=-2 / threads=12 / lookahead_threads=3 / sliced_threads=0 / nr=0 / decimate=1 / interlaced=0 / bluray_compat=0 / constrained_intra=0 / fgo=0 / bframes=14 / b_pyramid=2 / b_adapt=2 / b_bias=0 / direct=1 / weightb=1 / open_gop=0 / weightp=2 / keyint=250 / keyint_min=23 / scenecut=40 / intra_refresh=0 / rc_lookahead=70 / rc=crf / mbtree=0 / crf=17.5599 / qcomp=0.81 / qpmin=0 / qpmax=69 / qpstep=4 / vbv_maxrate=50000 / vbv_bufsize=62500 / crf_max=0.0 / nal_hrd=none / filler=0 / ip_ratio=1.40 / pb_ratio=1.30 / aq=3:0.90Language : EnglishDefault : YesForced : NoColor primaries : BT.709Transfer characteristics : BT.709Matrix coefficients : BT.709
Audio #1ID : 2Format : AC-3Format/Info : Audio Coding 3Mode extension : CM (complete main)Format settings, Endianness : BigCodec ID : A_AC3Duration : 1h 32mnBit rate mode : ConstantBit rate : 448 KbpsChannel(s) : 6 channelsChannel positions : Front: L C R, Side: L R, LFESampling rate : 48.0 KHzBit depth : 16 bitsCompression mode : LossyStream size : 296 MiB (10%)Title : AC3, 6 ch, 48 kHz, 448 kbps - Полное дублированиеLanguage : RussianDefault : YesForced : No
Audio #2ID : 3Format : AC-3Format/Info : Audio Coding 3Mode extension : CM (complete main)Format settings, Endianness : BigCodec ID : A_AC3Duration : 1h 32mnBit rate mode : ConstantBit rate : 448 KbpsChannel(s) : 6 channelsChannel positions : Front: L C R, Side: L R, LFESampling rate : 48.0 KHzBit depth : 16 bitsCompression mode : LossyStream size : 296 MiB (10%)Title : AC3, 6 ch, 48 kHz, 448 kbps - Полное дублированиеLanguage : UkrainianDefault : NoForced : No
Audio #3ID : 4Format : AC-3Format/Info : Audio Coding 3Mode extension : CM (complete main)Format settings, Endianness : BigCodec ID : A_AC3Duration : 1h 32mnBit rate mode : ConstantBit rate : 448 KbpsChannel(s) : 6 channelsChannel positions : Front: L C R, Side: L R, LFESampling rate : 48.0 KHzBit depth : 16 bitsCompression mode : LossyStream size : 296 MiB (10%)Title : AC3 EX, 6 ch, 48 kHz, 448 kbps - OriginalLanguage : EnglishDefault : NoForced : No
Text #1ID : 5Format : UTF-8Codec ID : S_TEXT/UTF8Codec ID/Info : UTF-8 Plain TextTitle : ПолныеLanguage : RussianDefault : NoForced : No
Text #2ID : 6Format : UTF-8Codec ID : S_TEXT/UTF8Codec ID/Info : UTF-8 Plain TextTitle : ФорсированныеLanguage : RussianDefault : NoForced : No
Text #3ID : 7Format : UTF-8Codec ID : S_TEXT/UTF8Codec ID/Info : UTF-8 Plain TextTitle : ПолныеLanguage : UkrainianDefault : NoForced : No
Text #4ID : 8Format : UTF-8Codec ID : S_TEXT/UTF8Codec ID/Info : UTF-8 Plain TextTitle : ФорсированныеLanguage : UkrainianDefault : NoForced : No
Text #5ID : 9Format : UTF-8Codec ID : S_TEXT/UTF8Codec ID/Info : UTF-8 Plain TextTitle : FullLanguage : EnglishDefault : NoForced : No
Text #6ID : 10Format : UTF-8Codec ID : S_TEXT/UTF8Codec ID/Info : UTF-8 Plain TextTitle : (SDH)Language : EnglishDefault : NoForced : No
Menu00:00:00.000 : en:Chapter 100:03:48.645 : en:Chapter 200:07:12.223 : en:Chapter 300:11:02.495 : en:Chapter 400:13:30.018 : en:Chapter 500:17:29.465 : en:Chapter 600:21:48.516 : en:Chapter 700:26:39.306 : en:Chapter 800:28:40.177 : en:Chapter 900:30:53.101 : en:Chapter 1000:33:57.452 : en:Chapter 1100:35:29.919 : en:Chapter 1200:37:47.182 : en:Chapter 1300:41:27.652 : en:Chapter 1400:44:47.685 : en:Chapter 1500:48:16.352 : en:Chapter 1600:51:48.981 : en:Chapter 1700:54:56.543 : en:Chapter 1800:58:32.801 : en:Chapter 1901:00:49.187 : en:Chapter 2001:02:53.186 : en:Chapter 2101:04:39.084 : en:Chapter 2201:08:22.265 : en:Chapter 2301:11:13.728 : en:Chapter 2401:14:52.655 : en:Chapter 2501:20:27.448 : en:Chapter 2601:21:40.312 : en:Chapter 2701:22:39.580 : en:Chapter 28

Скриншоты

Скриншот с названием мультфильма
--BDRip-AVC


Source Blu-Ray

Релиз от групп | and | -Данный релиз не будет воспроизводиться на бытовых плеерах не поддерживающих MKV и H.264Обсуждение релизов в AVC формате || Свежие AVC рипы

_________________
Показать сообщения:    

Текущее время: Сегодня 23:30

Часовой пояс: GMT



Вы не можете начинать темы
Вы не можете отвечать на сообщения
Вы не можете редактировать свои сообщения
Вы не можете удалять свои сообщения
Вы не можете голосовать в опросах
Вы не можете прикреплять файлы к сообщениям
Вы не можете скачивать файлы