Приключения Жерара / The Adventures of Gerard (Ежи Сколимовский / Jerzy Skolimowski) [1970, Великобритания, Швейцария, приключения, комедия, HDTV 1080i] MVO (НТВ+) + MVO (5 канал) + Original Eng :: Ивановский Торрент трекер
Важное объявление!
У Нас Все раздачи мультитрекерные, при нуле пиров в релизах, можете смело вставать на закачку!
Статистика раздачи
Размер:     |    Зарегистрирован:     |    Скачан:     |   
Нет
 
     
 
 
Автор Сообщение

HUNTER

Стаж:
4 года 11 месяцев
Сообщений:
66112

Репутация: 101

[+] [-]
Вне форума [Профиль] [ЛС]

Приключения Жерара / The Adventures of Gerard
Страна: Великобритания, Швейцария
Жанр: Приключения, комедия
Год выпуска: 1970
Продолжительность: 01:27:58
Перевод: Профессиональный (многоголосый закадровый) НТВ+
Перевод 2: Профессиональный (многоголосый закадровый) 5 канал
Cубтитры: нет
Оригинальная аудиодорожка: английский
Режиссер: Ежи Сколимовский / Jerzy Skolimowski
В ролях: Питер МакИнери, Клаудия Кардинале, Эли Уоллах, Джек Хоукинс, Джон Невилл, Марк Бёрнс, Норман Россингтон, Паоло Стоппа, Иван Десни, Леопольдо Триесте, Зольви Штубинг, Джон Барта, Од Лоринг Марк Бёрнс
Описание: Экранизация популярного произведения Артура Конан Дойла о приключениях и подвигах смельчака и красавца, любимца женщин, отчаянного дуэлянта, кавалериста, бригадира Жерара во время наполеоновских войн... Во всем великом французском войске был только один офицер, к которому англичане из армии Веллингтона питали глубокую, яркую, неугасимую ненависть. Были среди французов грабители, насильники, заядлые игроки, дуэлянты и повесы. Все это можно простить, поскольку нетрудно было найти им подобных и среди англичан. Но один офицер из армии Массена совершил преступление невиданное, неслыханное, ужасное; не к ночи будь оно помянуто, разве только когда вторая бутылка развяжет языки. Весть об этом донеслась до Англии, и джентльмены из глухих ее уголков, которые мало что знали о войне, краснели от ярости, когда слышали об этом, а йомены из всех графств грозили в небо веснушчатыми кулаками и изрыгали проклятия. И кто бы вы думали совершил это ужасное деяние? Ну, конечно же, наш друг бригадир Этьен Жерар из Конфланского гусарского полка, лихой наездник, забияка, добрый малый, любимец дам и шести бригад легкой кавалерии... Картина носит несколько сюрреалистический характер и визуально свидетельствует о богатом воображении режиссера. Эли Уоллах в роли Наполеона.
Доп. информация: В этот раз MGM исправились и показали необрезанную картинку.
Сэмпл: http://multi-up.com/1076464
Тип релиза: HDTV 1080i
Контейнер: MKV
Видео: AVC, 1920x1080 (16:9), 25.000 fps, 6 313 Kbps (0.061 bit/pixel)
Аудио: MP2, 48.0 KHz, 2 ch, 192 Kbps, CBR (Russian) - НТВ+
Аудио 2: AC-3, 48.0 KHz, 2 ch, 192 Kbps, CBR (Russian) - 5 канал
Аудио 3: MP2, 48.0 KHz, 2 ch, 192 Kbps, CBR (English)

MediaInfo

Общее
Уникальный идентификатор : 213134346861432123262347267133724493499 (0xA0582E9CC7E0E52B9B16E38C030906BB)
Полное имя : K:\Приключения Жерара.mkv
Формат : Matroska
Версия формата : Version 2
Размер файла : 4,32 Гбайт
Продолжительность : 1 ч. 27 м.
Общий поток : 7029 Кбит/сек
Дата кодирования : UTC 2015-11-21 21:39:54
Программа кодирования : mkvmerge v8.2.0 ('World of Adventure') 64bit
Библиотека кодирования : libebml v1.3.1 + libmatroska v1.4.2
Видео
Идентификатор : 1
Формат : AVC
Формат/Информация : Advanced Video Codec
Профиль формата : Main@L4
Параметр CABAC формата : Да
Параметр ReFrames формата : 4 кадра
Параметр GOP формата : M=4, N=28
Идентификатор кодека : V_MPEG4/ISO/AVC
Продолжительность : 1 ч. 27 м.
Битрейт : 6313 Кбит/сек
Ширина : 1920 пикселей
Высота : 1080 пикселей
Соотношение сторон : 16:9
Режим частоты кадров : Постоянный
Частота кадров : 25,000 кадров/сек
Стандарт вещания : Component
Цветовое пространство : YUV
Субдискретизация насыщенности : 4:2:0
Битовая глубина : 8 бит
Тип развёртки : Чересстрочная
Порядок развёртки : Верхнее поле первое
Бит/(Пиксели*Кадры) : 0.122
Размер потока : 3,88 Гбайт (90%)
Заголовок : Приключения Жерара / The Adventures of Gerard (1970)
Язык : English
Default : Да
Forced : Нет
Цветовой диапазон : Limited
Основные цвета : BT.709
Характеристики трансфера : BT.709
Коэффициенты матрицы : BT.709
Аудио #1
Идентификатор : 2
Формат : MPEG Audio
Версия формата : Version 1
Профиль формата : Layer 2
Идентификатор кодека : A_MPEG/L2
Идентификатор кодека/Подсказка : MP2
Продолжительность : 1 ч. 27 м.
Вид битрейта : Постоянный
Битрейт : 192 Кбит/сек
Каналы : 2 канала
Частота : 48,0 КГц
Метод сжатия : С потерями
Размер потока : 121 Мбайт (3%)
Заголовок : Профессиональный (многоголосый закадровый) НТВ+
Язык : Russian
Default : Да
Forced : Нет
Аудио #2
Идентификатор : 3
Формат : AC-3
Формат/Информация : Audio Coding 3
Расширение режима : CM (complete main)
Параметр Endianness формата : Big
Идентификатор кодека : A_AC3
Продолжительность : 1 ч. 27 м.
Вид битрейта : Постоянный
Битрейт : 192 Кбит/сек
Каналы : 2 канала
Расположение каналов : Front: L R
Частота : 48,0 КГц
Метод сжатия : С потерями
Размер потока : 121 Мбайт (3%)
Заголовок : Профессиональный (многоголосый закадровый) 5 канал
Язык : Russian
Default : Нет
Forced : Нет
Аудио #3
Идентификатор : 4
Формат : MPEG Audio
Версия формата : Version 1
Профиль формата : Layer 2
Идентификатор кодека : A_MPEG/L2
Идентификатор кодека/Подсказка : MP2
Продолжительность : 1 ч. 27 м.
Вид битрейта : Постоянный
Битрейт : 192 Кбит/сек
Каналы : 2 канала
Частота : 48,0 КГц
Метод сжатия : С потерями
Размер потока : 121 Мбайт (3%)
Язык : English
Default : Нет
Forced : Нет

Скриншоты



_________________
Показать сообщения:    

Текущее время: Сегодня 22:55

Часовой пояс: GMT



Вы не можете начинать темы
Вы не можете отвечать на сообщения
Вы не можете редактировать свои сообщения
Вы не можете удалять свои сообщения
Вы не можете голосовать в опросах
Вы не можете прикреплять файлы к сообщениям
Вы не можете скачивать файлы