Важное объявление!
У Нас Все раздачи мультитрекерные, при нуле пиров в релизах, можете смело вставать на закачку!
 
Автор Сообщение

HUNTER

Стаж:
4 года 8 месяцев
Сообщений:
62128

Репутация: 101

[+] [-]
Вне форума [Профиль] [ЛС]

Приключения в Палм-Бич / The Palm Beach Story
Страна: США
Жанр: комедия
Год выпуска: 1942
Продолжительность: 01:28:14
Перевод: Профессиональный (многоголосый закадровый) Петербург 5 канал
Перевод: Авторский (одноголосый закадровый) Петр Карцев
Cубтитры: английские
Оригинальная аудиодорожка: английский-Режиссер: Престон Стёрджес / Preston Sturges
В ролях: Клодетт Кольбер, Джоэл МакКри, Мэри Астор, Руди Валли, Зиг Арно, Роберт Уорвик (I), Артур Стюарт Халл, Торбен Мейер, Джимми Конлин, Виктор Потель, Уильям Демарест, Джек Нортон, Роберт Грег, Роско Эйтс, Дьюи Робинсон, Честер Конклин, Шелдон Джетт, Роберт Дадли, Франклин Пэнгборн, Артур Хойт
Описание: Жена амбициозного, но нищего инженера-архитектора отправляется во Флориду. За ней начинает ухаживать миллионер Джон Д. Хекенсекер III. Когда появляется муж, она уговаривает его представиться ее братом. Неистовая череда сменяющих друг друга событий приводит к неожиданному финалу, прежде чем зрители начнут понимать, что происходит.
IMDb || КиноПоиск-Тип релиза: BDRemux 1080p [The Palm Beach Story 1942 1080p Blu-ray AVC LPCM 1.0-CiNEMATiC]
Контейнер: MKV
Видео: MPEG-4 AVC Video, 1920x1080 at 23.976 fps, 35133 kbps
Аудио#1: Russian: 48 kHz, AC3, 2.0 ch, 192 kbps
Аудио#2: Russian: 48 kHz, AC3, 2.0 ch, 192 kbps
Аудио#3: English: 48 kHz, FLAC, 1.0 ch, 582 kbps
Формат субтитров: softsub (SRT)
Сэмпл

Дополнительно

За отечественные дорожки спасибо vikholin2004 и palmeiras.

MediaInfo

General
Unique ID : 177303119169014697208279274258183485362 (0x856356B160FC0A58A700F02622CFF7B2)
Complete name : I:\Приключения в Палм-Бич\The.Palm.Beach.Story.1942.Criterion.BDRemux. rutracker.mkv
Format : Matroska
Format version : Version 2
File size : 22.2 GiB
Duration : 1h 28mn
Overall bit rate mode : Variable
Overall bit rate : 36.0 Mbps
Movie name : Release for RuTracker
Writing application : mkvmerge v5.0.1 ('Es ist Sommer') built on Nov 6 2011 16:23:40
Writing library : libebml v1.2.2 + libmatroska v1.3.0
Video
ID : 1
Format : AVC
Format/Info : Advanced Video Codec
Format profile : High@L4.1
Format settings, CABAC : Yes
Format settings, ReFrames : 4 frames
Codec ID : V_MPEG4/ISO/AVC
Duration : 1h 28mn
Bit rate mode : Variable
Maximum bit rate : 37.0 Mbps
Width : 1 920 pixels
Height : 1 080 pixels
Display aspect ratio : 16:9
Frame rate mode : Constant
Frame rate : 23.976 fps
Color space : YUV
Chroma subsampling : 4:2:0
Bit depth : 8 bits
Scan type : Progressive
Title : The.Palm.Beach.Story.1942.Criterion.BDRemux. rutracker
Language : English
Default : Yes
Forced : No
Audio #1
ID : 2
Format : AC-3
Format/Info : Audio Coding 3
Mode extension : CM (complete main)
Format settings, Endianness : Big
Codec ID : A_AC3
Duration : 1h 28mn
Bit rate mode : Constant
Bit rate : 192 Kbps
Channel(s) : 2 channels
Channel positions : Front: L R
Sampling rate : 48.0 KHz
Bit depth : 16 bits
Compression mode : Lossy
Stream size : 121 MiB (1%)
Title : mvo, Петербург 5 канал
Language : Russian
Default : Yes
Forced : No
Audio #2
ID : 3
Format : AC-3
Format/Info : Audio Coding 3
Mode extension : CM (complete main)
Format settings, Endianness : Big
Codec ID : A_AC3
Duration : 1h 28mn
Bit rate mode : Constant
Bit rate : 192 Kbps
Channel(s) : 2 channels
Channel positions : Front: L R
Sampling rate : 48.0 KHz
Bit depth : 16 bits
Compression mode : Lossy
Stream size : 121 MiB (1%)
Title : avo, Петр Карцев
Default : No
Forced : No
Audio #3
ID : 4
Format : FLAC
Format/Info : Free Lossless Audio Codec
Codec ID : A_FLAC
Duration : 1h 28mn
Bit rate mode : Variable
Channel(s) : 1 channel
Sampling rate : 48.0 KHz
Bit depth : 24 bits
Writing library : libFLAC 20080709 (UTC 2008-07-09)
Language : English
Default : No
Forced : No
Text
ID : 5
Format : UTF-8
Codec ID : S_TEXT/UTF8
Codec ID/Info : UTF-8 Plain Text
Language : English
Default : No
Forced : No
Menu
00:00:00.000 : en:00:00:00.000
00:03:17.780 : en:00:03:17.780
00:10:30.546 : en:00:10:30.546
00:17:16.994 : en:00:17:16.994
00:25:27.400 : en:00:25:27.400
00:29:25.346 : en:00:29:25.346
00:38:30.683 : en:00:38:30.683
00:43:53.088 : en:00:43:53.088
00:48:24.318 : en:00:48:24.318
00:51:56.071 : en:00:51:56.071
00:56:52.575 : en:00:56:52.575
01:03:06.657 : en:01:03:06.657
01:08:45.704 : en:01:08:45.704
01:14:20.164 : en:01:14:20.164
01:22:15.388 : en:01:22:15.388

Скриншоты


_________________
Показать сообщения:    

Текущее время: Сегодня 23:58

Часовой пояс: GMT



Вы не можете начинать темы
Вы не можете отвечать на сообщения
Вы не можете редактировать свои сообщения
Вы не можете удалять свои сообщения
Вы не можете голосовать в опросах
Вы не можете прикреплять файлы к сообщениям
Вы не можете скачивать файлы
Наши партнеры: интернет магазин Ивановского трикотажа textilla.ru