Ивановский Торрент трекер
Яндекс.Погода
 

[Цитировать]
HUNTER

Приключения бурундучков / The Chipmunk Adventure
Страна: США
Жанр: мультфильм, мюзикл, фэнтези, комедия, приключения, семейный
Продолжительность: 01:17:02
Год выпуска: 1987
Перевод: Одноголосый закадровый
Русские субтитры: нет
Режиссёр: Дженис Кармэн / Janice Karman
Роли озвучивали: Росс Багдасарян мл., Дженис Карман, Доди Гудмен, Сьюзен Тиррел, Энтони Де Лонгис, Фрэнк Уэлкер, Нэнси Картрайт, Филип Л. Кларк, Кен Сэнсом, Джордж Поулос
Описание: Любимое трио — Элвин, Саймон и Теодор — в полнометражном мультфильме. Элвин заключает пари со своими друзьями. Тот, кто победит в гонках вокруг света, получит приз в 100 000 долларов. Но не все так легко, как кажется. На пути возникают препятствия, через которые им помогает пройти настоящая дружба.

Качество: HDRip
Формат: AVI
Видео: Xvid, 688x384 (1.79:1), 23.976 fps, XviD build 73 ~1210 kbps avg, 0.19 bit/pixel
Аудио: Mp3, 48 kHz, MPEG Layer 3, 2 ch, ~128.00 kbps avg
Субтитры: отсутствуют

Подробные технические данные

Complete name : Priklyucheniya.burunduchkov.1987.HDRip.aviFormat : AVIFormat/Info : Audio Video InterleaveFile size : 743 MiBDuration : 1h 17mnOverall bit rate : 1 348 KbpsWriting application : VirtualDubMod 1.5.10.2 (build 2540/release)Writing library : VirtualDubMod build 2540/release
VideoID : 0Format : MPEG-4 VisualFormat profile : Advanced Simple@L5Format settings, BVOP : 2Format settings, QPel : NoFormat settings, GMC : No warppointsFormat settings, Matrix : Default (H.263)Codec ID : XVIDCodec ID/Hint : XviDDuration : 1h 17mnBit rate : 1 211 KbpsWidth : 688 pixelsHeight : 384 pixelsDisplay aspect ratio : 16:9Frame rate : 23.976 fpsColor space : YUVChroma subsampling : 4:2:0Bit depth : 8 bitsScan type : ProgressiveCompression mode : LossyBits/(Pixel*Frame) : 0.191Stream size : 667 MiB (90%)Writing library : XviD 73
AudioID : 1Format : MPEG AudioFormat version : Version 1Format profile : Layer 3Codec ID : 55Codec ID/Hint : MP3Duration : 1h 17mnBit rate mode : ConstantBit rate : 128 KbpsChannel(s) : 2 channelsSampling rate : 48.0 KHzCompression mode : LossyStream size : 70.5 MiB (9%)Alignment : Aligned on interleavesInterleave, duration : 42 ms (1.00 video frame)Interleave, preload duration : 504 msWriting library : LAME3.99rEncoding settings : -m s -V 4 -q 2 -lowpass 17 -b 128

Скриншоты



Показать сообщения:    

Текущее время: 16-Дек 09:25

Часовой пояс: UTC ± 0


Вы не можете начинать темы
Вы не можете отвечать на сообщения
Вы не можете редактировать свои сообщения
Вы не можете удалять свои сообщения
Вы не можете голосовать в опросах
Вы не можете прикреплять файлы к сообщениям
Вы не можете скачивать файлы

!ВНИМАНИЕ!
Сайт не предоставляет электронные версии произведений, а занимается лишь коллекционированием и каталогизацией ссылок, присылаемых и публикуемых на форуме нашими читателями. Если вы являетесь правообладателем какого-либо представленного материала и не желаете, чтобы ссылка на него находилась в нашем каталоге, свяжитесь с нами, и мы незамедлительно удалим ее. Файлы для обмена на трекере предоставлены пользователями сайта, и администрация не несет ответственности за их содержание. Просьба не заливать файлы, защищенные авторскими правами, а также файлы нелегального содержания!