Приключения Боба и Дага МакКензи: Странное варево / The Adventures of Bob & Doug McKenzie: Strange Brew (Рик Морэнис / Rick Moranis, Дэйв Томас / Dave Thomas) [1983, Канада, США, комедия, BDRemux 1080p] DVO (НТВ+) + Sub (Rus, Eng) + Original Eng :: Ивановский Торрент трекер
Важное объявление!
У Нас Все раздачи мультитрекерные, при нуле пиров в релизах, можете смело вставать на закачку!
Статистика раздачи
Размер:     |    Зарегистрирован:     |    Скачан:     |   
Нет
 
     
 
 
Автор Сообщение

HUNTER

Стаж:
4 года 11 месяцев
Сообщений:
66098

Репутация: 101

[+] [-]
Вне форума [Профиль] [ЛС]

Приключения Боба и Дага МакКензи: Странное варево / The Adventures of Bob & Doug McKenzie: Strange Brew
Страна: Канада, США
Студия: Metro-Goldwyn-Mayer (MGM)
Жанр: комедия
Год выпуска: 1983
Продолжительность: 01:30:29
Перевод: Профессиональный (двухголосый закадровый) НТВ+
Cубтитры: русские [Forced, на непереведенные места], английские
Оригинальная аудиодорожка: английский
-
Режиссер: Рик Морэнис / Rick Moranis, Дэйв Томас / Dave Thomas
В ролях: Дэйв Томас, Рик Морэнис, Макс фон Сюдов, Пол Дули, Линн Гриффин, Энгус МакИннес, Том Харви, Дуглас Кэмпбелл, Брайан МакКоннаки, Лен Дончефф
-
Описание: Два добряка-придурка - братья Боб и Даг МакКензи сняли кино о своих приключениях на пивоварне «Эльсинор». Эти двое попали на пивзавод в самый разгар дележа власти на предприятии. Совсем недавно скончался глава фирмы, а на пивоварне уже вовсю властвует его братец Клод. Клод времени зря не терял и женился на вдове брата.
Но эта парочка не учла, что существует еще и совершеннолетняя дочь Памела, которой по закону принадлежит больше половины акций предприятия, и она вовсе не намерена отказываться от бизнеса! Более того, девушка решила разобраться с загадочной смертью своего отца...
КиноПоиск
---> В транслируемой по TV версии вырезана 1 сцена и диалог во время титров. Переведено субтитрами.
Тип релиза: BDRemux 1080p
Контейнер: MKV
Видео: MPEG-4 AVC / NTSC 16:9 / 1920x1080 (1,78:1) / 39068 kbps / 23,976 fps / 0.804 bit/pixel / High@L4.1
Аудио 1: Russian / AC3 / 2.0 Ch / 48 kHz / 192 kbps / 16 bit / DVO
Аудио 2: English / DTS-HD Master Audio / 2.0 Ch / 48 kHz / 1845 kbps / 24-bit (DTS Core: 2.0 Ch / 48 kHz / 1509 kbps / 24-bit) / Original
Формат субтитров: softsub (SRT)
Навигация по главам: есть

MediaInfo

Общее
Уникальный идентификатор : 209232048003894623769550389345698764473 (0x9D68A06CA2320BD99EFB35FF2F4CD6B9)
Полное имя : D:\The Adventures of Bob & Doug McKenzie_Strange Brew.1983.BDRemux.1080p.mkv
Формат : Matroska
Версия формата : Version 4 / Version 2
Размер файла : 26,0 Гбайт
Продолжительность : 1 ч. 30 м.
Общий поток : 41,1 Мбит/сек
Дата кодирования : UTC 2016-03-07 09:14:21
Программа кодирования : mkvmerge v8.9.0 ('Father Daughter') 64bit
Библиотека кодирования : libebml v1.3.3 + libmatroska v1.4.4
Видео
Идентификатор : 1
Формат : AVC
Формат/Информация : Advanced Video Codec
Профиль формата : High@L4.1
Параметр CABAC формата : Да
Параметр ReFrames формата : 4 кадра
Идентификатор кодека : V_MPEG4/ISO/AVC
Продолжительность : 1 ч. 30 м.
Вид битрейта : Постоянный
Битрейт : 40,0 Мбит/сек
Ширина : 1920 пикселей
Высота : 1080 пикселей
Соотношение сторон : 16:9
Режим частоты кадров : Постоянный
Частота кадров : 23,976 (24000/1001) кадра/сек
Цветовое пространство : YUV
Субдискретизация насыщенности : 4:2:0
Битовая глубина : 8 бит
Тип развёртки : Прогрессивная
Бит/(Пиксели*Кадры) : 0.804
Размер потока : 24,7 Гбайт (95%)
Язык : English
Default : Да
Forced : Нет
Аудио #1
Идентификатор : 2
Формат : AC-3
Формат/Информация : Audio Coding 3
Расширение режима : CM (complete main)
Параметр Endianness формата : Big
Идентификатор кодека : A_AC3
Продолжительность : 1 ч. 30 м.
Вид битрейта : Постоянный
Битрейт : 192 Кбит/сек
Каналы : 2 канала
Расположение каналов : Front: L R
Частота : 48,0 КГц
Частота кадров : 31,250 кадров/сек (1536 spf)
Метод сжатия : С потерями
Размер потока : 124 Мбайт (0%)
Заголовок : DVO / НТВ+
Язык : Russian
Default : Да
Forced : Нет
Аудио #2
Идентификатор : 3
Формат : DTS
Формат/Информация : Digital Theater Systems
Профиль формата : MA / Core
Режим : 16
Параметр Endianness формата : Big
Идентификатор кодека : A_DTS
Продолжительность : 1 ч. 30 м.
Вид битрейта : Переменный / Постоянный
Битрейт : 1845 Кбит/сек / 1509 Кбит/сек
Каналы : 2 канала
Расположение каналов : Front: L R
Частота : 48,0 КГц
Частота кадров : 93,750 кадра/сек (512 spf)
Битовая глубина : 24 бит
Метод сжатия : Без потерь / Lossy
Размер потока : 1,17 Гбайт (4%)
Заголовок : Original
Язык : English
Default : Нет
Forced : Нет
Текст #1
Идентификатор : 4
Формат : UTF-8
Идентификатор кодека : S_TEXT/UTF8
Идентификатор кодека/Информация : UTF-8 Plain Text
Продолжительность : 1 ч. 4 м.
Битрейт : 16 бит/сек
Count of elements : 109
Размер потока : 7,84 Кбайт (0%)
Заголовок : Forced
Язык : Russian
Default : Да
Forced : Нет
Текст #2
Идентификатор : 5
Формат : UTF-8
Идентификатор кодека : S_TEXT/UTF8
Идентификатор кодека/Информация : UTF-8 Plain Text
Продолжительность : 1 ч. 30 м.
Битрейт : 72 бит/сек
Count of elements : 1224
Размер потока : 48,2 Кбайт (0%)
Заголовок : Original
Язык : English
Default : Нет
Forced : Нет
Меню
00:00:00.000 : en:Welcome to Our Movie
00:02:43.372 : en:Revenge of the Moviegoers
00:07:13.350 : en:Credits (Strange Brew)
00:09:30.820 : en:Beer Bust
00:12:55.817 : en:Elsinore Brewery
00:16:16.142 : en:Meet the Owner
00:20:12.878 : en:Trouble Brewing
00:22:47.533 : en:Jackpots
00:27:18.762 : en:Two Weeks Notice
00:31:44.736 : en:Snooping Around
00:37:23.533 : en:Fighting Music
00:39:55.977 : en:Detour
00:45:32.813 : en:Broken Brakes
00:48:39.667 : en:Splash Crash
00:51:01.225 : en:Intermission/Framed
00:53:33.252 : en:They're Innocent
00:57:21.897 : en:No Scientific Explanation
00:59:20.849 : en:Norris Defense: Split Pleas
01:02:34.668 : en:Hospital Havoc
01:06:19.100 : en:Wired
01:09:30.875 : en:Lunatics on the Loose
01:12:58.749 : en:All Lit Up
01:17:40.447 : en:Nice Effects
01:21:26.799 : en:Hosehead to the Rescue
01:25:23.327 : en:Beer Disposal Experts
01:26:52.666 : en:Review and End Credits

_________________
Показать сообщения:    

Текущее время: Сегодня 09:04

Часовой пояс: GMT



Вы не можете начинать темы
Вы не можете отвечать на сообщения
Вы не можете редактировать свои сообщения
Вы не можете удалять свои сообщения
Вы не можете голосовать в опросах
Вы не можете прикреплять файлы к сообщениям
Вы не можете скачивать файлы