Важное объявление!
У Нас Все раздачи мультитрекерные, при нуле пиров в релизах, можете смело вставать на закачку!
Статистика раздачи
Размер:     |    Зарегистрирован:     |    Скачан:     |   
Нет
 
     
 
 
Автор Сообщение

HUNTER

Стаж:
5 лет 1 месяц
Сообщений:
68449

Репутация: 101

[+] [-]
Вне форума [Профиль] [ЛС]

Приключения Ам Няма / Om Nom Stories-Год выпуска:2011-2014
Страна: Россия
Жанр:Мультсериал, рисованный, детский, приключения
Продолжительность: 28 х ~ 00:01:30
Кол-во эпизодов: 28
Перевод: Оригинал (Русский)-Режиссёр: Артур Меркулов, Игорь Сандимиров-Описание: Яркий, веселый и очень динамичный мультсериал, снятый по мотивам популярной видеоигры-головоломки Cut thy Rope, суть которой заключается в том, чтобы накормить леденцами маленького зеленого монстрика Ам Няма, сидящего в картонной коробке. Для этого нужно правильно перерезать веревки, на которых висят сладости – так, чтобы они попадали Ам Няму прямо в рот. Вечно голодный монстрик очень полюбился пользователям портативных устройств, для которых предназначена игра. Особенно Ам Ням приглянулся детям, поэтому неудивительно, что вскоре после выхода Cut thy Rope появился и сериал о приключениях обаятельного героя-сладкоежки.
Однажды мальчик Эван обнаружил на пороге собственного дома загадочную коробку. Открыв ее, он увидел там маленького зеленого монстрика, который был очень напуган. Хорошо, что Эвану пришло в голову покорить это существо конфетой – Ам Ням с радостью слопал ее, и с этого момента они с Эваном стали лучшими друзьями.-Качество: WEB-DL 720
Формат: MP4
Видео: MPEG4 (H264) 1280x712 25fps 2514kbps
Аудио #1 AAC 48000Hz stereo 155kbps, 155 kb/s
Аудио #2 Dolby AC3 48000Hz stereo 256kbps, 256 kb/s-

Эпизоды

Сезон 1:
01. Начало
02. Странная посылка
03. Пора купаться
04. Любимая еда
05. Сладкое лекарство
06. Хеллоуин
07. Фокусы
08. Урок рисования
09. Банка с леденцами
10. С Новым Годом!
11. Друг-робот
Сезон 2:
01. Путешествие во времени
02. Средневековье
03. Ренессанс
04. Пиратские корабли
05. Древний Египет
06. Древняя Греция
07. Каменный Век
08. Диско
09. Дикий запад
10. Дом, милый дом
Сезон 3:
01. Неожиданное приключение
02. Лес
03. Песчаная плотина
04. Свалка
05. Городской парк
06. Вентиляция
07. Фруктовый магазин
-

MediaInfo

Format : MPEG-4
Format profile : Base Media
Codec ID : isom
File size : 27.5 MiB
Duration : 1mn 18s
Overall bit rate : 2 930 Kbps
Writing application : Lavf55.33.100
Video
ID : 1
Format : AVC
Format/Info : Advanced Video Codec
Format profile : High@L4.0
Format settings, CABAC : Yes
Format settings, ReFrames : 3 frames
Codec ID : avc1
Codec ID/Info : Advanced Video Coding
Duration : 1mn 18s
Bit rate : 2 535 Kbps
Width : 1 280 pixels
Height : 712 pixels
Display aspect ratio : 16:9
Frame rate mode : Constant
Frame rate : 25.000 fps
Color space : YUV
Chroma subsampling : 4:2:0
Bit depth : 8 bits
Scan type : Progressive
Bits/(Pixel*Frame) : 0.111
Stream size : 23.6 MiB (86%)
Writing library : x264 core 142
Encoding settings : cabac=1 / ref=4 / deblock=1:0:0 / analyse=0x3:0x133 / me=umh / subme=9 / psy=1 / psy_rd=1.00:0.00 / mixed_ref=1 / me_range=24 / chroma_me=1 / trellis=2 / 8x8dct=1 / cqm=0 / deadzone=21,11 / fast_pskip=1 / chroma_qp_offset=-2 / threads=2 / lookahead_threads=1 / sliced_threads=0 / nr=0 / decimate=1 / interlaced=0 / bluray_compat=0 / constrained_intra=0 / bframes=9 / b_pyramid=1 / b_adapt=2 / b_bias=0 / direct=3 / weightb=1 / open_gop=0 / weightp=2 / keyint=100 / keyint_min=10 / scenecut=40 / intra_refresh=0 / rc_lookahead=100 / rc=2pass / mbtree=1 / bitrate=2535 / ratetol=1.0 / qcomp=0.60 / qpmin=0 / qpmax=69 / qpstep=4 / cplxblur=20.0 / qblur=0.5 / vbv_maxrate=3296 / vbv_bufsize=3803 / nal_hrd=none / filler=0 / ip_ratio=1.40 / aq=1:1.00
Language : English
Tagged date : UTC 2014-07-02 04:45:46
Audio #1
ID : 2
Format : AAC
Format/Info : Advanced Audio Codec
Format profile : LC
Codec ID : 40
Duration : 1mn 18s
Source duration : 1mn 18s
Bit rate mode : Constant
Bit rate : 155 Kbps
Channel(s) : 2 channels
Channel positions : Front: L R
Sampling rate : 48.0 KHz
Compression mode : Lossy
Stream size : 1.46 MiB (5%)
Source stream size : 1.46 MiB (5%)
Tagged date : UTC 2014-07-02 04:45:46
Audio #2
ID : 3
Format : AC-3
Format/Info : Audio Coding 3
Mode extension : CM (complete main)
Format settings, Endianness : Big
Codec ID : ac-3
Duration : 1mn 18s
Source duration : 1mn 18s
Bit rate mode : Constant
Bit rate : 256 Kbps
Channel(s) : 2 channels
Channel positions : Front: L R
Sampling rate : 48.0 KHz
Bit depth : 16 bits
Compression mode : Lossy
Stream size : 2.40 MiB (9%)
Source stream size : 2.40 MiB (9%)
-

Скриншоты

-Источник:

_________________
Показать сообщения:    

Текущее время: Сегодня 06:44

Часовой пояс: GMT



Вы не можете начинать темы
Вы не можете отвечать на сообщения
Вы не можете редактировать свои сообщения
Вы не можете удалять свои сообщения
Вы не можете голосовать в опросах
Вы не можете прикреплять файлы к сообщениям
Вы не можете скачивать файлы