Ивановский Торрент трекер
Яндекс.Погода
 

[Цитировать]
HUNTER

Призрачная команда / The Scream Team
Страна: США
Жанр: фэнтези, комедия, семейный
Год выпуска: 2002
Продолжительность: 01:27:47
Перевод: Профессиональный (многоголосый закадровый) СТС
Cубтитры: английские
Оригинальная аудиодорожка: английский
Режиссер: Стюарт Гиллард / Stuart Gillard
В ролях: Марк Рендалл, Кэт Деннингс, Роберт Бокстэл, Эрик Айдл, Томми Дэвидсон, Кэти Нэджими, Ким Коутс, Гэри Райнеке, Найджел Беннетт, Эди Никсеттер...
Описание: Двое детей переезжают в город, где совсем недавно умер их дедушка. Они с удивлением узнают, что местные привидения ищут потерявшуюся душу их дедушки.
Внуки решают помочь в поисках потерянной души, которую похитил злой призрак. В одиночку детям не справится с таким противником, поэтому они обращаются за помощью к призрачному патрулю — команде покойников, специалистов по поиску душ и борьбе со злыми духами.
Вместе они должны отыскать душу дедушки и уничтожить зловещее привидение…
Доп. информация: Звук с TVRip. Синхронизация звука - Dreven.
Сэмпл: http://multi-up.com/1075981
Тип релиза: HDTVRip 720p
Контейнер: MKV
Видео: 1280x720 (16:9), 29.970 fps, AVC, ~4920 Kbps, 0.178 bits/pixel
Аудио 1: Russian, 48.0 KHz, AC3, 2 ch, 192 Kbps - СТС
Аудио 2: English, 48.0 KHz, AC3, 2 ch, 192 Kbps

MediaInfo

General
Unique ID : 196938871788159994750068065450968761954 (0x94290C0AC0905D7BA7CCA3BE71B04662)
Complete name : C:\The Scream Team. HDTVRip 720p.mkv
Format : Matroska
Format version : Version 4 / Version 2
File size : 3.24 GiB
Duration : 1h 27mn
Overall bit rate : 5 278 Kbps
Encoded date : UTC 2015-11-19 17:21:04
Writing application : mkvmerge v8.4.0 ('A better way to fly') 64bit
Writing library : libebml v1.3.1 + libmatroska v1.4.2
DURATION : 01:27:46.720000000
NUMBER_OF_FRAMES : 164585
NUMBER_OF_BYTES : 126401280
_STATISTICS_WRITING_APP : mkvmerge v8.4.0 ('A better way to fly') 64bit
_STATISTICS_WRITING_DATE_UT : 2015-11-19 17:21:04
_STATISTICS_TAGS : BPS DURATION NUMBER_OF_FRAMES NUMBER_OF_BYTES
Video
ID : 1
Format : AVC
Format/Info : Advanced Video Codec
Format profile : High@L3.1
Format settings, CABAC : Yes
Format settings, ReFrames : 2 frames
Codec ID : V_MPEG4/ISO/AVC
Bit rate : 4 920 Kbps
Width : 1 280 pixels
Height : 720 pixels
Display aspect ratio : 16:9
Frame rate mode : Variable
Original frame rate : 30.000 fps
Color space : YUV
Chroma subsampling : 4:2:0
Bit depth : 8 bits
Scan type : Progressive
Bits/(Pixel*Frame) : 0.178
Writing library : x264 core 115 r1995M 5a37283
Encoding settings : cabac=1 / ref=2 / deblock=1:0:0 / analyse=0x3:0x113 / me=hex / subme=2 / psy=1 / psy_rd=1.00:0.00 / mixed_ref=0 / me_range=16 / chroma_me=1 / trellis=0 / 8x8dct=1 / cqm=0 / deadzone=21,11 / fast_pskip=1 / chroma_qp_offset=0 / threads=4 / sliced_threads=0 / nr=250 / decimate=1 / interlaced=0 / bluray_compat=0 / constrained_intra=0 / bframes=0 / weightp=1 / keyint=250 / keyint_min=25 / scenecut=40 / intra_refresh=0 / rc_lookahead=10 / rc=2pass / mbtree=1 / bitrate=4920 / ratetol=1.0 / qcomp=0.60 / qpmin=5 / qpmax=69 / qpstep=4 / cplxblur=20.0 / qblur=0.5 / ip_ratio=1.40 / aq=1:1.00
Language : English
Default : Yes
Forced : No
Audio #1
ID : 2
Format : AC-3
Format/Info : Audio Coding 3
Mode extension : CM (complete main)
Format settings, Endianness : Big
Codec ID : A_AC3
Duration : 1h 27mn
Bit rate mode : Constant
Bit rate : 192 Kbps
Channel(s) : 2 channels
Channel positions : Front: L R
Sampling rate : 48.0 KHz
Compression mode : Lossy
Delay relative to video : -16ms
Stream size : 121 MiB (4%)
Title : СТС
Language : Russian
Default : Yes
Forced : No
Audio #2
ID : 3
Format : AC-3
Format/Info : Audio Coding 3
Mode extension : CM (complete main)
Format settings, Endianness : Big
Codec ID : A_AC3
Duration : 1h 27mn
Bit rate mode : Constant
Bit rate : 192 Kbps
Channel(s) : 2 channels
Channel positions : Front: L R
Sampling rate : 48.0 KHz
Compression mode : Lossy
Delay relative to video : -16ms
Stream size : 121 MiB (4%)
Language : English
Default : No
Forced : No
Text
ID : 4
Format : UTF-8
Codec ID : S_TEXT/UTF8
Codec ID/Info : UTF-8 Plain Text
Language : English
Default : No
Forced : No

Скриншоты

Показать сообщения:    

Текущее время: 23-Сен 22:40

Часовой пояс: UTC - 1


Вы не можете начинать темы
Вы не можете отвечать на сообщения
Вы не можете редактировать свои сообщения
Вы не можете удалять свои сообщения
Вы не можете голосовать в опросах
Вы не можете прикреплять файлы к сообщениям
Вы не можете скачивать файлы

!ВНИМАНИЕ!
Сайт не предоставляет электронные версии произведений, а занимается лишь коллекционированием и каталогизацией ссылок, присылаемых и публикуемых на форуме нашими читателями. Если вы являетесь правообладателем какого-либо представленного материала и не желаете, чтобы ссылка на него находилась в нашем каталоге, свяжитесь с нами, и мы незамедлительно удалим ее. Файлы для обмена на трекере предоставлены пользователями сайта, и администрация не несет ответственности за их содержание. Просьба не заливать файлы, защищенные авторскими правами, а также файлы нелегального содержания!