Ивановский Торрент трекер
Яндекс.Погода
 

[Цитировать]
HUNTER

Призрак Черной Бороды / Blackbeard's Ghost
Страна: США
Студия: Walt Disney Productions
Жанр: фэнтези, комедия, семейный
Год выпуска: 1968
Продолжительность: 01:47:00
Перевод: Профессиональный (многоголосый закадровый) 5-й канал СПб
Перевод 2: Профессиональный (двухголосый закадровый) DVD-Магия
Cубтитры: английские
Оригинальная аудиодорожка: английский
Режиссер: Роберт Стивенсон / Robert Stevenson
В ролях: Питер Устинов, Дин Джонс, Сюзанн Плешетт, Эльза Ланчестер, Джоби Бэйкер, Эллиот Рид, Ричард Дикон, Норман Грабовски, Келли Тордсэн, Майкл Конрад
Описание: Стив Уокер прибывает в город Годолфин, чтобы стать тренером по легкой атлетике в местном колледже. Ночь его прибытия совпадает с благотворительным аукционом в «Гостинице Черной Бороды», отеле, которым управляют пожилые дамы, потомки пирата. Владельцы пытаются заплатить ипотеку, чтобы препятствовать местному преступному боссу, желающему построить казино на этой земле. В первую же ночь к Стиву является призрак Черной Бороды. Известный пират был проклят его последней женой, которая была ведьмой. Он вынужден путешествовать внутри времени до тех пор, пока не станет делать добрые дела. Действительно ли пират в состоянии сделать что-то хорошее?
Альтернативное описание: Однажды страшный и бессердечный пират «Черная борода» материализовался в маленьком городке Новой Англии, он принужден путешествовать внутри времени до тех пор, пока не станет делать добрые дела. Он получает шанс вырваться, когда решает помочь спортивной команде колледжа, у которой нет ни малейшего шанса выиграть матч. "Черная борода" находит себя с помощью "духа" команды и становится как бы невидимым судьей матча.
Доп. информация: За дорожку 5-ого канала спасибо DD4678, в ней есть вставка(00:24:44-00:29:43) из дорожки DVD-Магии, за которую спасибо palmeiras.
Sample
Тип релиза: WEB-DL 720p
Контейнер: MKV
Видео: MPEG4 AVC Video, H264, 1202x720, 23.976 fps, 4077 kbps
Аудио: Russian (AC3, 2 ch, 192 kbps, 16 bits, 48.0 KHz) - 5-й канал СПб
Аудио 2: Russian (AC3, 2 ch, 192 kbps, 16 bits, 48.0 KHz) - DVD-Магия
Аудио 3: English (AC3, 2 ch, 192 kbps, 16 bits, 48.0 KHz) - оригинал
Формат субтитров: softsub (SRT)

MediaInfo

General
Unique ID : 197347248957042945864932904663973606897 (0x9477B2974835A2CA97C0B910D193B5F1)
Complete name : K:\Blackbeards Ghost 1968 WEB-DL 720p.mkv
Format : Matroska
Format version : Version 4 / Version 2
File size : 3.55 GiB
Duration : 1h 47mn
Overall bit rate : 4 747 Kbps
Encoded date : UTC 2015-10-22 12:07:21
Writing application : mkvmerge v6.1.0 ('Old Devil') built on Mar 2 2013 14:32:37
Writing library : libebml v1.3.0 + libmatroska v1.4.0
Video
ID : 1
Format : AVC
Format/Info : Advanced Video Codec
Format profile : High@L3.1
Format settings, CABAC : No
Format settings, ReFrames : 2 frames
Codec ID : V_MPEG4/ISO/AVC
Duration : 1h 47mn
Bit rate : 4 077 Kbps
Width : 1 202 pixels
Height : 720 pixels
Display aspect ratio : 1.669
Frame rate mode : Constant
Frame rate : 23.976 fps
Color space : YUV
Chroma subsampling : 4:2:0
Bit depth : 8 bits
Scan type : Progressive
Bits/(Pixel*Frame) : 0.196
Stream size : 3.05 GiB (86%)
Language : English
Default : Yes
Forced : No
Color primaries : BT.709
Transfer characteristics : BT.709
Matrix coefficients : BT.709
Audio #1
ID : 2
Format : AC-3
Format/Info : Audio Coding 3
Mode extension : CM (complete main)
Format settings, Endianness : Big
Codec ID : A_AC3
Duration : 1h 47mn
Bit rate mode : Constant
Bit rate : 192 Kbps
Channel count : 2 channels
Channel positions : Front: L R
Sampling rate : 48.0 KHz
Bit depth : 16 bits
Compression mode : Lossy
Stream size : 147 MiB (4%)
Title : 5-й канал СПб
Language : Russian
Default : Yes
Forced : No
Audio #2
ID : 3
Format : AC-3
Format/Info : Audio Coding 3
Mode extension : CM (complete main)
Format settings, Endianness : Big
Codec ID : A_AC3
Duration : 1h 47mn
Bit rate mode : Constant
Bit rate : 192 Kbps
Channel count : 2 channels
Channel positions : Front: L R
Sampling rate : 48.0 KHz
Bit depth : 16 bits
Compression mode : Lossy
Stream size : 147 MiB (4%)
Title : DVD-Магия
Language : Russian
Default : No
Forced : No
Audio #3
ID : 4
Format : AC-3
Format/Info : Audio Coding 3
Mode extension : CM (complete main)
Format settings, Endianness : Big
Codec ID : A_AC3
Duration : 1h 47mn
Bit rate mode : Constant
Bit rate : 192 Kbps
Channel count : 2 channels
Channel positions : Front: L R
Sampling rate : 48.0 KHz
Bit depth : 16 bits
Compression mode : Lossy
Stream size : 147 MiB (4%)
Language : English
Default : No
Forced : No
Text
ID : 5
Format : UTF-8
Codec ID : S_TEXT/UTF8
Codec ID/Info : UTF-8 Plain Text
Language : English
Default : No
Forced : No
Menu
00:00:00.000 : en:Opening Titles / New Track Coach
00:08:48.000 : en:Auction At Blackbeard's Inn
00:18:23.000 : en:Bed Warmer
00:29:33.000 : en:Newfound Shipmate
00:36:25.000 : en:Coach Walker's Problem
00:47:49.000 : en:Silky's Place
00:58:24.000 : en:$900 On Godolphin
01:06:32.000 : en:A Time For Action
01:13:12.000 : en:Principles
01:21:45.000 : en:Collecting From Mr. Seymour
01:29:53.000 : en:A Game Of Roulette
01:39:29.000 : en:Burning The Mortgage / End Credits

Скриншоты



Показать сообщения:    

Текущее время: 13-Дек 07:40

Часовой пояс: UTC ± 0


Вы не можете начинать темы
Вы не можете отвечать на сообщения
Вы не можете редактировать свои сообщения
Вы не можете удалять свои сообщения
Вы не можете голосовать в опросах
Вы не можете прикреплять файлы к сообщениям
Вы не можете скачивать файлы

!ВНИМАНИЕ!
Сайт не предоставляет электронные версии произведений, а занимается лишь коллекционированием и каталогизацией ссылок, присылаемых и публикуемых на форуме нашими читателями. Если вы являетесь правообладателем какого-либо представленного материала и не желаете, чтобы ссылка на него находилась в нашем каталоге, свяжитесь с нами, и мы незамедлительно удалим ее. Файлы для обмена на трекере предоставлены пользователями сайта, и администрация не несет ответственности за их содержание. Просьба не заливать файлы, защищенные авторскими правами, а также файлы нелегального содержания!