Важное объявление!
У Нас Все раздачи мультитрекерные, при нуле пиров в релизах, можете смело вставать на закачку!
 
Автор Сообщение

HUNTER

Стаж:
4 года 9 месяцев
Сообщений:
65021

Репутация: 101

[+] [-]
Вне форума [Профиль] [ЛС]

Призрак рая / Phantom of the Paradise
Страна: США
Студия: Harbor Productions
Жанр: мюзикл, фэнтази, мистика
Год выпуска: 1974
Продолжительность: 01:31:30
Перевод: Профессиональный (двухголосый закадровый) 5 канал
Cубтитры: русские(ReDGaD, IVH), английские
Оригинальная аудиодорожка: английский
Режиссер: Брайан Де Пальма / Brian De Palma
В ролях: Пол Уильямс, Уильям Финли, Джессика Харпер, Джордж Меммоли, Геррит Грэм, Арчи Хан, Джеффри Команор, Питер Элблинг, Колин Камерон, Дэвид Гарлэнд
Описание: Молодой композитор Уинслоу Лич обвинен в краже музыкального произведения, брошен в тюрьму и оклеветан бессовестным продюсером, Сваном, собственником рая, который продал душу дьяволу в обмен на бессмертие и успех. Сван превращает музыку Уинслоу в рок-оперу, которая сводит композитора с ума. Ему удается выбраться из тюрьмы. Теперь Уинслоу становится Призраком и пытается вырвать из когтей Свана молодую певицу Феникс…

Sample
Тип релиза: BDRip 720p - EbP
Контейнер: MKV
Видео: MPEG4 AVC Video, H264, 16:9, 1280x694, 24.000 fps, 10.3 Mbps
Аудио: Russian (AC3, 2 ch, 192 kbps, 16 bits, 48.0 KHz) - 5 канал
Аудио 2: English (AC3, 6 ch, 640 kbps, 16 bits, 48.0 KHz) - оригинал
Формат субтитров: softsub (SRT)

MediaInfo

General
Unique ID : 246110687029192295384286703506231767208 (0xB92731B5ABADC40987B6883D4D2DB0A8)
Complete name : E:\1\Phantom of the Paradise 1974 BDRip 720p-EbP.mkv
Format : Matroska
Format version : Version 4 / Version 2
File size : 7.29 GiB
Duration : 1h 31mn
Overall bit rate : 11.4 Mbps
Encoded date : UTC 2014-07-31 03:05:14
Writing application : mkvmerge v6.1.0 ('Old Devil') built on Mar 2 2013 14:32:37
Writing library : libebml v1.3.0 + libmatroska v1.4.0
Cover : Cover.jpg
Video
ID : 1
Format : AVC
Format/Info : Advanced Video Codec
Format profile : High@L4.1
Format settings, CABAC : Yes
Format settings, ReFrames : 9 frames
Codec ID : V_MPEG4/ISO/AVC
Duration : 1h 31mn
Bit rate : 10.3 Mbps
Width : 1 280 pixels
Height : 694 pixels
Display aspect ratio : 1.85:1
Frame rate mode : Constant
Frame rate : 24.000 fps
Color space : YUV
Chroma subsampling : 4:2:0
Bit depth : 8 bits
Scan type : Progressive
Bits/(Pixel*Frame) : 0.485
Stream size : 6.61 GiB (91%)
Writing library : x264 core 128 r2216 198a7ea
Encoding settings : cabac=1 / ref=9 / deblock=1:-3:-3 / analyse=0x3:0x113 / me=umh / subme=9 / psy=1 / psy_rd=1.15:0.00 / mixed_ref=1 / me_range=16 / chroma_me=1 / trellis=2 / 8x8dct=1 / cqm=0 / deadzone=21,11 / fast_pskip=0 / chroma_qp_offset=-2 / threads=12 / lookahead_threads=2 / sliced_threads=0 / nr=0 / decimate=0 / interlaced=0 / bluray_compat=0 / constrained_intra=0 / bframes=7 / b_pyramid=2 / b_adapt=2 / b_bias=0 / direct=3 / weightb=1 / open_gop=0 / weightp=2 / keyint=250 / keyint_min=24 / scenecut=40 / intra_refresh=0 / rc=crf / mbtree=0 / crf=17.0 / qcomp=0.75 / qpmin=0 / qpmax=69 / qpstep=4 / ip_ratio=1.40 / pb_ratio=1.30 / aq=1:0.60
Language : English
Default : Yes
Forced : No
Matrix coefficients : BT.709
Audio #1
ID : 2
Format : AC-3
Format/Info : Audio Coding 3
Mode extension : CM (complete main)
Format settings, Endianness : Big
Codec ID : A_AC3
Duration : 1h 31mn
Bit rate mode : Constant
Bit rate : 192 Kbps
Channel count : 2 channels
Channel positions : Front: L R
Sampling rate : 48.0 KHz
Bit depth : 16 bits
Compression mode : Lossy
Stream size : 126 MiB (2%)
Title : 5 канал
Language : Russian
Default : Yes
Forced : No
Audio #2
ID : 3
Format : AC-3
Format/Info : Audio Coding 3
Mode extension : CM (complete main)
Format settings, Endianness : Big
Codec ID : A_AC3
Duration : 1h 31mn
Bit rate mode : Constant
Bit rate : 640 Kbps
Channel count : 6 channels
Channel positions : Front: L C R, Side: L R, LFE
Sampling rate : 48.0 KHz
Bit depth : 16 bits
Compression mode : Lossy
Stream size : 419 MiB (6%)
Language : English
Default : No
Forced : No
Text #1
ID : 4
Format : UTF-8
Codec ID : S_TEXT/UTF8
Codec ID/Info : UTF-8 Plain Text
Title : SRT RUS [ReDGaD]
Language : Russian
Default : No
Forced : No
Text #2
ID : 5
Format : UTF-8
Codec ID : S_TEXT/UTF8
Codec ID/Info : UTF-8 Plain Text
Title : IVH
Language : Russian
Default : No
Forced : No
Text #3
ID : 6
Format : UTF-8
Codec ID : S_TEXT/UTF8
Codec ID/Info : UTF-8 Plain Text
Title : English
Language : English
Default : No
Forced : No
Menu
00:00:00.000 : en:00:00:00.000
00:11:52.500 : en:00:11:52.500
00:30:00.375 : en:00:30:00.375
00:36:05.500 : en:00:36:05.500
00:55:17.958 : en:00:55:17.958
01:20:59.625 : en:01:20:59.625
01:27:09.333 : en:01:27:09.333

Source vs Encode

Source | Encode

Скриншоты


_________________
Показать сообщения:    

Текущее время: Сегодня 16:41

Часовой пояс: GMT



Вы не можете начинать темы
Вы не можете отвечать на сообщения
Вы не можете редактировать свои сообщения
Вы не можете удалять свои сообщения
Вы не можете голосовать в опросах
Вы не можете прикреплять файлы к сообщениям
Вы не можете скачивать файлы