Важное объявление!
У Нас Все раздачи мультитрекерные, при нуле пиров в релизах, можете смело вставать на закачку!
 
Автор Сообщение

HUNTER

Стаж:
4 года 10 месяцев
Сообщений:
65492

Репутация: 101

[+] [-]
Вне форума [Профиль] [ЛС]

Призрак в доспехах: У истоков / Призрак в доспехах: Возникновение / Koukaku Kidoutai Arise: Ghost in the Shell-
Год выпуска: 2013
Страна: Япония
Жанр: приключения, киберпанк, фантастика, боевик
Продолжительность:OVA (4 эп.), 60 мин.-
Перевод: Любительский (двухголосый)
Озвучка: loster01, Emeri
Тайминг: Rin
Семпл: здесь-Субтитры: есть
Перевод на русский: [Advokat, Kekcelt, pantsurevolution]-Режиссер: Кисэ Кадзутика / Kise Kazuchika / 黄瀬和哉
Автор оригинала: Сиро Масамунэ / Shirow Masamune / 士郎正宗
Студия
-Описание:
Итак, дело происходит в 2027 году, год спустя после завершения «четвёртой неядерной войны». Нью Порт Сити всё ещё не оправился окончательно от последствий боевых действий, но город уже вновь начинают сотрясать взрывы самоходных бомб. Примерно в то же время оказывается застрелен военный офицер, вовлеченный в незаконную торговлю оружием. В ходе расследования всего этого Дайске Арамаки из Отдела общественной безопасности встречает киборга и хакера экстра-класса Мотоко Кусанаги, приписанную к военному 501-ому секретному подразделению. Бато, сотрудник Арамаки и человек с «глазами, которые никогда не спят», подозревает, что именно Кусанаги ответственна за теракты. Тем временем Тогуса, детектив из префектуры Ниихама, одновременно расследует два убийства: в первом случае жертву застрелили, во втором жертва была проституткой. За самой же Мотоко пристально наблюдают глава 501-ого подразделения Куруцу и агенты-киборги.
-Качество: BDRip [by LE-Production]
Формат: MKV
Видео кодек: H264[8bit]
Аудио кодек: AC-3
Видео: 1280x720 (16:9), 4 000 kbps, 23.976 fps
Аудио#1: RUS(int) AC-3, 48.0 kHz, 640 Kbps, 5.1 ch
Аудио#2: JAP AC-3, 48.0 kHz, 640 Kbps, 5.1 ch
Релиз от:
-HWP-раздача-

Подробные тех. данные

Format : MatroskaFormat version : Version 2File size : 2.15 GiBDuration : 58mn 22sOverall bit rate : 5 281 KbpsMovie name : LE-ProductionEncoded date : UTC 2013-08-02 14:30:14Writing application : mkvmerge v4.5.0 ('Speed of Light') сборка от Feb 6 2011 12:51:39Writing library : libebml v1.2.0 + libmatroska v1.1.0
VideoID : 1Format : AVCFormat/Info : Advanced Video CodecFormat profile : High@L4.0Format settings, CABAC : YesFormat settings, ReFrames : 6 framesCodec ID : V_MPEG4/ISO/AVCDuration : 58mn 22sBit rate : 4 000 KbpsWidth : 1 280 pixelsHeight : 720 pixelsDisplay aspect ratio : 16:9Frame rate mode : ConstantFrame rate : 23.976 fpsColor space : YUVChroma subsampling : 4:2:0Bit depth : 8 bitsScan type : ProgressiveBits/(Pixel*Frame) : 0.181Stream size : 1.59 GiB (74%)Title : LE-ProductionWriting library : x264 core 119 r2106 07efeb4Encoding settings : cabac=1 / ref=6 / deblock=1:1:1 / analyse=0x3:0x133 / me=umh / subme=7 / psy=1 / psy_rd=0.40:0.00 / mixed_ref=1 / me_range=16 / chroma_me=1 / trellis=2 / 8x8dct=1 / cqm=0 / deadzone=21,11 / fast_pskip=0 / chroma_qp_offset=-2 / threads=3 / sliced_threads=0 / nr=0 / decimate=1 / interlaced=0 / bluray_compat=0 / constrained_intra=0 / bframes=5 / b_pyramid=2 / b_adapt=2 / b_bias=0 / direct=3 / weightb=1 / open_gop=0 / weightp=2 / keyint=250 / keyint_min=23 / scenecut=40 / intra_refresh=0 / rc_lookahead=50 / rc=2pass / mbtree=1 / bitrate=4000 / ratetol=1.0 / qcomp=0.60 / qpmin=0 / qpmax=69 / qpstep=4 / cplxblur=20.0 / qblur=0.5 / ip_ratio=1.40 / aq=1:0.60Language : JapaneseDefault : YesForced : Yes
Audio #1ID : 2Format : AC-3Format/Info : Audio Coding 3Mode extension : CM (complete main)Format settings, Endianness : BigCodec ID : A_AC3Duration : 58mn 22sBit rate mode : ConstantBit rate : 640 KbpsChannel(s) : 6 channelsChannel positions : Front: L C R, Side: L R, LFESampling rate : 48.0 KHzBit depth : 16 bitsCompression mode : LossyStream size : 267 MiB (12%)Title : LE-Production(loster01, Emeri)Language : RussianDefault : YesForced : Yes
Audio #2ID : 3Format : AC-3Format/Info : Audio Coding 3Mode extension : CM (complete main)Format settings, Endianness : BigCodec ID : A_AC3Duration : 58mn 22sBit rate mode : ConstantBit rate : 640 KbpsChannel(s) : 6 channelsChannel positions : Front: L C R, Side: L R, LFESampling rate : 48.0 KHzBit depth : 16 bitsCompression mode : LossyStream size : 267 MiB (12%)Language : JapaneseDefault : NoForced : No
Text #1ID : 4Format : ASSCodec ID : S_TEXT/ASSCodec ID/Info : Advanced Sub Station AlphaCompression mode : LosslessTitle : Antravoco(Advokat, Kekcelt, pantsurevolution) надписиLanguage : RussianDefault : YesForced : Yes
Text #2ID : 5Format : ASSCodec ID : S_TEXT/ASSCodec ID/Info : Advanced Sub Station AlphaCompression mode : LosslessTitle : Antravoco(Advokat, Kekcelt, pantsurevolution) полныеLanguage : RussianDefault : NoForced : No

Отличия

http://rutracker.org/forum/viewtopic.php?t=4478510 - наличие озвучки
http://rutracker.org/forum/viewtopic.php?t=4480095 - альтернативная озвучка
http://rutracker.org/forum/viewtopic.php?t=4477511 - альтернативная озвучка

Скриншоты




_________________
Показать сообщения:    

Текущее время: Сегодня 04:25

Часовой пояс: GMT



Вы не можете начинать темы
Вы не можете отвечать на сообщения
Вы не можете редактировать свои сообщения
Вы не можете удалять свои сообщения
Вы не можете голосовать в опросах
Вы не можете прикреплять файлы к сообщениям
Вы не можете скачивать файлы