Важное объявление!
У Нас Все раздачи мультитрекерные, при нуле пиров в релизах, можете смело вставать на закачку!
Статистика раздачи
Размер:     |    Зарегистрирован:     |    Скачан:     |   
Нет
 
     
 
 
Автор Сообщение

HUNTER

Стаж:
5 лет
Сообщений:
67910

Репутация: 101

[+] [-]
Вне форума [Профиль] [ЛС]

Приезжие / The Out-Of-Towners
Страна: США
Студия: Jalem Productions, Paramount Pictures
Жанр: Комедия
Год выпуска: 1970
Продолжительность: 01:33:24
Перевод: Профессиональный (многоголосый закадровый)
Cубтитры: английские
Оригинальная аудиодорожка: английский
Режиссер: Артур Хиллер / Arthur Hiller
В ролях: Джек Леммон, Сэнди Деннис, Сэнди Бэрон, Энн Мира, Роберт Николс, Энн Престисс, Рон Кэри (Jack Lemmon, Sandy Dennis, Sandy Baron, Anne Meara, Robert Nichols, Ann Prestiss, Ron Carey)
Описание: По пьесе знаменитого американского драматурга Нила Саймона.
Немолодая супружеская чета - Генри и Нэнси Кларк - отправляется в путешествие из маленького городка родного штата Огайо в Нью-Йорк. Здесь, в огромном и опасном городе, Кларков поджидают невероятные приключения. Их багаж пропал, деньги похищены самым наглым образом, а высокомерный менеджер гостиницы отказал супругам в ночлеге. Оказавшись в безвыходном положении, Генри и Нэнси попадают в массу немыслимых и презабавных ситуаций. Но в тот момент, когда фортуна, казалось бы, совсем отвернулась от несчастных приезжих, они совершенно неожиданно друг для друга обретают утраченное счастье...
Доп. информация: Автор рипа - ZED. Добавлена русская дорожка, взятая из раздачи Austin-ozon, за что ему большое спасибо!
Сэмпл
Тип релиза: HDTVRip 720p
Контейнер: MKV
Видео: 1280x718p (16:9), 25 fps, x264, 6995 kbps
Аудио 1: Russian (Dolby AC3, 2 ch) 192 Kbps / 48 000 Hz
Аудио 2: English (Dolby AC3, 2 ch) 192 Kbps / 48 000 Hz
Субтитры: English

MediaInfo

Уникальный идентификатор : 170399156745216450943873560535385154628 (0x8031AF109F73857BB87B91F8A80AA444)
Полное имя : The.Out-of-Towners.(1970).HDTVRip.720p.x264.RUS.ENG.AC3
Формат : Matroska
Версия формата : Version 4 / Version 2
Размер файла : 4,91 Гбайт
Продолжительность : 1 ч. 33 м.
Общий поток : 7529 Кбит/сек
Название фильма : The Out-of-Towners (1970) HDTVRip 720p
Дата кодирования : UTC 2014-09-28 18:25:49
Программа кодирования : mkvmerge v7.2.0 ('On Every Street') 32bit built on Sep 13 2014 15:42:11
Библиотека кодирования : libebml v1.3.0 + libmatroska v1.4.1
DURATION : 01:33:23.968000000
NUMBER_OF_FRAMES : 175124
NUMBER_OF_BYTES : 134495232
_STATISTICS_WRITING_APP : mkvmerge v7.2.0 ('On Every Street') 32bit built on Sep 13 2014 15:42:11
_STATISTICS_WRITING_DATE_UTC : 2014-09-28 18:25:49
_STATISTICS_TAGS : BPS DURATION NUMBER_OF_FRAMES NUMBER_OF_BYTES
Видео
Идентификатор : 1
Формат : AVC
Формат/Информация : Advanced Video Codec
Профиль формата : High@L4.1
Параметр CABAC формата : Да
Параметр ReFrames формата : 9 кадров
Идентификатор кодека : V_MPEG4/ISO/AVC
Продолжительность : 1 ч. 33 м.
Битрейт : 6995 Кбит/сек
Ширина : 1280 пикселей
Высота : 718 пикселей
Соотношение сторон : 16:9
Режим частоты кадров : Постоянный
Частота кадров : 25,000 кадров/сек
Цветовое пространство : YUV
Субдискретизация насыщенности : 4:2:0
Битовая глубина : 8 бит
Тип развёртки : Прогрессивная
Бит/(Пиксели*Кадры) : 0.304
Размер потока : 4,56 Гбайт (93%)
Библиотека кодирования : x264 core 130 r2273 b3065e6
Настройки программы : cabac=1 / ref=9 / deblock=1:-3:-3 / analyse=0x3:0x133 / me=umh / subme=10 / psy=1 / psy_rd=1.05:0.00 / mixed_ref=1 / me_range=24 / chroma_me=1 / trellis=2 / 8x8dct=1 / cqm=0 / deadzone=21,11 / fast_pskip=0 / chroma_qp_offset=-2 / threads=12 / lookahead_threads=2 / sliced_threads=0 / nr=0 / decimate=0 / interlaced=0 / bluray_compat=0 / constrained_intra=0 / bframes=8 / b_pyramid=2 / b_adapt=2 / b_bias=0 / direct=3 / weightb=1 / open_gop=0 / weightp=2 / keyint=250 / keyint_min=25 / scenecut=40 / intra_refresh=0 / rc_lookahead=60 / rc=crf / mbtree=0 / crf=15.8 / qcomp=0.75 / qpmin=0 / qpmax=69 / qpstep=4 / vbv_maxrate=50000 / vbv_bufsize=62500 / crf_max=0.0 / nal_hrd=none / ip_ratio=1.30 / pb_ratio=1.20 / aq=1:0.65
Default : Да
Forced : Нет
DURATION : 01:33:24.000000000
NUMBER_OF_FRAMES : 140100
NUMBER_OF_BYTES : 5003171944
_STATISTICS_WRITING_APP : mkvmerge v7.2.0 ('On Every Street') 32bit built on Sep 13 2014 15:42:11
_STATISTICS_WRITING_DATE_UTC : 2014-09-28 18:25:49
_STATISTICS_TAGS : BPS DURATION NUMBER_OF_FRAMES NUMBER_OF_BYTES
Аудио #1
Идентификатор : 2
Формат : AC-3
Формат/Информация : Audio Coding 3
Расширение режима : CM (complete main)
Параметр Endianness формата : Big
Идентификатор кодека : A_AC3
Продолжительность : 1 ч. 33 м.
Вид битрейта : Постоянный
Битрейт : 192 Кбит/сек
Каналы : 2 канала
Расположение каналов : Front: L R
Частота : 48,0 КГц
Битовая глубина : 16 бит
Метод сжатия : С потерями
Размер потока : 128 Мбайт (3%)
Язык : Russian
Default : Нет
Forced : Нет
Аудио #2
Идентификатор : 3
Формат : AC-3
Формат/Информация : Audio Coding 3
Расширение режима : CM (complete main)
Параметр Endianness формата : Big
Идентификатор кодека : A_AC3
Продолжительность : 1 ч. 33 м.
Вид битрейта : Постоянный
Битрейт : 192 Кбит/сек
Каналы : 2 канала
Расположение каналов : Front: L R
Частота : 48,0 КГц
Битовая глубина : 16 бит
Метод сжатия : С потерями
Размер потока : 128 Мбайт (3%)
Язык : English
Default : Нет
Forced : Нет
Текст
Идентификатор : 4
Формат : UTF-8
Идентификатор кодека : S_TEXT/UTF8
Идентификатор кодека/Информация : UTF-8 Plain Text
Язык : English
Default : Нет
Forced : Нет

Скриншоты


_________________
Показать сообщения:    

Текущее время: Сегодня 04:42

Часовой пояс: GMT



Вы не можете начинать темы
Вы не можете отвечать на сообщения
Вы не можете редактировать свои сообщения
Вы не можете удалять свои сообщения
Вы не можете голосовать в опросах
Вы не можете прикреплять файлы к сообщениям
Вы не можете скачивать файлы