Ивановский Торрент трекер
Яндекс.Погода
 

[Цитировать]
HUNTER

Придурок / Балда / The Jerk
Страна: США
Студия: Aspen Film Society
Жанр: комедия
Год выпуска: 1979
Продолжительность: 01:33:54
Перевод: Профессиональный (многоголосый закадровый) Lizard
Перевод 2: Профессиональный (многоголосый закадровый) СТС
Перевод 3: Авторский (одноголосый закадровый) А.Михалев
Cубтитры: русские, английские
Оригинальная аудиодорожка: английский
Режиссер: Карл Райнер / Carl Reiner
В ролях: Стив Мартин, Бернадетт Питерс, Кэтлин Адамс, Мэйбл Кинг, Ричард Уорд, Дик Энтони Уильямс, Билл Мэйси, М. Эммет Уолш, Дик О’Нил, Морис Эванс
Описание: Узнав, что он приемный сын, Нэйвин бросает своих названых чернокожих родителей и отправляется за смыслом жизни в Сент-Луис. Поначалу большой город не принимает новичка, и Нэйвину упорно приходится доказывать, что он чего-то стоит.
Долго мучиться не приходится, как говорится - дуракам везет, и на провинциального паренька нежданно-негаданно, оптом, сваливаются и богатство, и известность, и слава. Только вот, что делать со всем этим внезапным счастьем, придется поломать голову.
Альтернативное описание: Великолепный дебют Стива Мартина!!! История человека, попавшего из нищего в принцы и обратно.
Стив выступает в роли Нэвина Джонсона - приемного сына большой бедной чернокожей семьи. Наконец, в своё восемнадцатилетие Нэвин решает покинуть отчий дом и со словами "это - всё, в чём я нуждаюсь ..." берет стул и лампу... Так начинается череда нелепых и смешных приключений этакого "балды". Благодаря своему безумному изобретению держалки для очков он становится миллионером, переживает несколько покушений безумного киллера и, конечно же, влюбляется в прекрасную леди...

Сэмпл
Тип релиза: BDRip 1080p исх.HDtracker
Контейнер: MKV
Видео: MPEG4 AVC Video, H264, 1,85:1, 1920x1040, 23.976 fps, 13516 kbps
Аудио: Russian (DTS, 6 ch, 755 kbps, 16 bits, 48.0 KHz) - Lizard
Аудио 2: Russian (Dolby AC3, 2 ch, 256 kbps, 16 bits, 48.0 KHz) - СТС
Аудио 3: Russian (DTS, 6 ch, 1509 kbps, 24 bits, 48.0 KHz) - А.Михалев
Аудио 4: English (DTS, 6 ch, 1509 kbps, 24 bits, 48.0 KHz) - оригинал
Формат субтитров: softsub (SRT)

Технические отличия данной раздачи

Отличия от похожей раздачи в 1080 качестве http://rutracker.org/forum/viewtopic.php?t=2842860 очевидны:
1)Отличаются по типу там HDDVDRip 1080p
2)Здесь битрейт выше на 4100 kbps
3)Здесь больше наполнение дорожек и наличие русских субтитров
4)Значения MediaInfo(в скобках данные релиза HDDVDRip 1080p) - subme=10(subme=8), me_range=24(me_range=16), bframes=6(bframes=3)
Технически этот рип отличается и имеет право на жизнь.

Лог х264

---[Information] [14.03.2014 12:21:56] raw [info]: 1920x1040p 1:1 @ 24000/1001 fps (cfr)
---[Information] [14.03.2014 12:21:56] x264 [info]: using SAR=1/1
---[Information] [14.03.2014 12:21:56] x264 [info]: using cpu capabilities: MMX2 SSE2Fast SSSE3 SSE4.2
---[Information] [14.03.2014 12:21:56] x264 [info]: profile High, level 4.1
---[Information] [15.03.2014 0:09:10] x264 [info]: frame I:848 Avg QP:22.65 size:168265
---[Information] [15.03.2014 0:09:10] x264 [info]: frame P:25669 Avg QP:23.44 size:104277
---[Information] [15.03.2014 0:09:10] x264 [info]: frame B:108570 Avg QP:25.47 size: 61668
---[Information] [15.03.2014 0:09:10] x264 [info]: consecutive B-frames: 0.9% 0.6% 1.4% 18.7% 9.6% 63.5% 5.2%
---[Information] [15.03.2014 0:09:10] x264 [info]: mb I I16..4: 2.0% 91.8% 6.2%
---[Information] [15.03.2014 0:09:10] x264 [info]: mb P I16..4: 0.5% 34.7% 1.1% P16..4: 34.8% 22.1% 6.2% 0.0% 0.0% skip: 0.5%
---[Information] [15.03.2014 0:09:10] x264 [info]: mb B I16..4: 0.1% 5.7% 0.1% B16..8: 47.7% 15.0% 3.0% direct:14.2% skip:14.3% L0:45.7% L1:44.1% BI:10.2%
---[Information] [15.03.2014 0:09:10] x264 [info]: 8x8 transform intra:96.0% inter:68.8%
---[Information] [15.03.2014 0:09:10] x264 [info]: coded y,uvDC,uvAC intra: 97.5% 84.7% 44.1% inter: 58.3% 44.5% 2.7%
---[Information] [15.03.2014 0:09:10] x264 [info]: i16 v,h,dc,p: 37% 16% 16% 32%
---[Information] [15.03.2014 0:09:10] x264 [info]: i8 v,h,dc,ddl,ddr,vr,hd,vl,hu: 9% 7% 9% 10% 14% 14% 11% 14% 13%
---[Information] [15.03.2014 0:09:10] x264 [info]: i4 v,h,dc,ddl,ddr,vr,hd,vl,hu: 10% 6% 2% 9% 15% 17% 14% 13% 13%
---[Information] [15.03.2014 0:09:10] x264 [info]: i8c dc,h,v,p: 38% 24% 22% 16%
---[Information] [15.03.2014 0:09:10] x264 [info]: Weighted P-Frames: Y:11.1% UV:7.7%
---[Information] [15.03.2014 0:09:10] x264 [info]: ref P L0: 45.2% 11.6% 25.4% 16.1% 1.6% 0.0%
---[Information] [15.03.2014 0:09:10] x264 [info]: ref B L0: 82.0% 14.0% 4.0%
---[Information] [15.03.2014 0:09:10] x264 [info]: ref B L1: 89.3% 10.7%
---[Information] [15.03.2014 0:09:10] x264 [info]: kb/s:13509.76
---[Information] [15.03.2014 0:09:10] encoded 135087 frames, 3.18 fps, 13509.76 kb/s
--[Information] [15.03.2014 0:09:12] Final statistics
---[Information] [15.03.2014 0:09:12] Constant Quality Mode: Quality 21 computed...
---[Information] [15.03.2014 0:09:12] Video Bitrate Obtained (approximate): 13511 kbit/s
--[Information] [15.03.2014 0:09:12] MediaInfo
---[Information] File: D:\Rip\Pridurok.1979.x264.BDRip\Pridurok.1979.x264.BDRip.1080p.mkv

MediaInfo

Общее
Уникальный идентификатор : 216061340817338017219204638798597508619 (0xA28BE68E682A2469951891D926D6CE0B)
Полное имя : D:\1\The.Jerk.1979.x264.BDRip.1080p.mkv
Формат : Matroska
Версия формата : Version 4 / Version 2
Размер файла : 11,5 Гбайт
Продолжительность : 1 ч. 33 м.
Общий поток : 17,5 Мбит/сек
Дата кодирования : UTC 2014-03-17 13:34:02
Программа кодирования : mkvmerge v6.1.0 ('Old Devil') built on Mar 2 2013 14:32:37
Библиотека кодирования : libebml v1.3.0 + libmatroska v1.4.0
Видео
Идентификатор : 1
Формат : AVC
Формат/Информация : Advanced Video Codec
Профиль формата : High@L4.1
Параметр CABAC формата : Да
Параметр ReFrames формата : 4 кадра
Идентификатор кодека : V_MPEG4/ISO/AVC
Продолжительность : 1 ч. 33 м.
Битрейт : 13,2 Мбит/сек
Ширина : 1920 пикселей
Высота : 1040 пикселей
Соотношение сторон : 1,85:1
Режим частоты кадров : Постоянный
Частота кадров : 23,976 кадра/сек
Цветовое пространство : YUV
Субдискретизация насыщенности : 4:2:0
Битовая глубина : 8 бит
Тип развёртки : Прогрессивная
Бит/(Пиксели*Кадры) : 0.275
Размер потока : 8,64 Гбайт (75%)
Заголовок : BDRip-- STarankov
Библиотека кодирования : x264 core 138 r2358 9e941d1
Настройки программы : cabac=1 / ref=4 / deblock=1:-1:-1 / analyse=0x3:0x113 / me=umh / subme=10 / psy=1 / psy_rd=1.00:0.15 / mixed_ref=1 / me_range=24 / chroma_me=1 / trellis=2 / 8x8dct=1 / cqm=0 / deadzone=21,11 / fast_pskip=0 / chroma_qp_offset=-3 / threads=6 / lookahead_threads=1 / sliced_threads=0 / nr=0 / decimate=1 / interlaced=0 / bluray_compat=0 / constrained_intra=0 / bframes=6 / b_pyramid=2 / b_adapt=2 / b_bias=0 / direct=1 / weightb=1 / open_gop=0 / weightp=2 / keyint=230 / keyint_min=23 / scenecut=40 / intra_refresh=0 / rc_lookahead=40 / rc=crf / mbtree=0 / crf=21.0 / qcomp=0.60 / qpmin=0 / qpmax=69 / qpstep=4 / vbv_maxrate=40000 / vbv_bufsize=50000 / crf_max=0.0 / nal_hrd=none / ip_ratio=1.40 / pb_ratio=1.30 / aq=1:1.00
Язык : English
Default : Да
Forced : Нет
Аудио #1
Идентификатор : 2
Формат : DTS
Формат/Информация : Digital Theater Systems
Режим : 16
Параметр Endianness формата : Big
Идентификатор кодека : A_DTS
Продолжительность : 1 ч. 33 м.
Вид битрейта : Постоянный
Битрейт : 755 Кбит/сек
Каналы : 6 каналов
Расположение каналов : Front: L C R, Side: L R, LFE
Частота : 48,0 КГц
Битовая глубина : 16 бит
Метод сжатия : С потерями
Размер потока : 507 Мбайт (4%)
Заголовок : MVO (Lizard)
Язык : Russian
Default : Да
Forced : Нет
Аудио #2
Идентификатор : 3
Формат : AC-3
Формат/Информация : Audio Coding 3
Расширение режима : CM (complete main)
Параметр Endianness формата : Big
Идентификатор кодека : A_AC3
Продолжительность : 1 ч. 33 м.
Вид битрейта : Постоянный
Битрейт : 256 Кбит/сек
Каналы : 2 канала
Расположение каналов : Front: L R
Частота : 48,0 КГц
Битовая глубина : 16 бит
Метод сжатия : С потерями
Размер потока : 172 Мбайт (1%)
Заголовок : MVO (CTC)
Язык : Russian
Default : Нет
Forced : Нет
Аудио #3
Идентификатор : 4
Формат : DTS
Формат/Информация : Digital Theater Systems
Режим : 16
Параметр Endianness формата : Big
Идентификатор кодека : A_DTS
Продолжительность : 1 ч. 33 м.
Вид битрейта : Постоянный
Битрейт : 1509 Кбит/сек
Каналы : 6 каналов
Расположение каналов : Front: L C R, Side: L R, LFE
Частота : 48,0 КГц
Битовая глубина : 24 бит
Метод сжатия : С потерями
Размер потока : 1014 Мбайт (9%)
Заголовок : AVO (Алексей Михалёв)
Язык : Russian
Default : Нет
Forced : Нет
Аудио #4
Идентификатор : 5
Формат : DTS
Формат/Информация : Digital Theater Systems
Режим : 16
Параметр Endianness формата : Big
Идентификатор кодека : A_DTS
Продолжительность : 1 ч. 33 м.
Вид битрейта : Постоянный
Битрейт : 1509 Кбит/сек
Каналы : 6 каналов
Расположение каналов : Front: L C R, Side: L R, LFE
Частота : 48,0 КГц
Битовая глубина : 24 бит
Метод сжатия : С потерями
Размер потока : 1014 Мбайт (9%)
Язык : English
Default : Нет
Forced : Нет
Текст #1
Идентификатор : 6
Формат : UTF-8
Идентификатор кодека : S_TEXT/UTF8
Идентификатор кодека/Информация : UTF-8 Plain Text
Язык : Russian
Default : Нет
Forced : Нет
Текст #2
Идентификатор : 7
Формат : UTF-8
Идентификатор кодека : S_TEXT/UTF8
Идентификатор кодека/Информация : UTF-8 Plain Text
Язык : English
Default : Нет
Forced : Нет

Скриншоты



Показать сообщения:    

Текущее время: 12-Дек 20:04

Часовой пояс: UTC ± 0


Вы не можете начинать темы
Вы не можете отвечать на сообщения
Вы не можете редактировать свои сообщения
Вы не можете удалять свои сообщения
Вы не можете голосовать в опросах
Вы не можете прикреплять файлы к сообщениям
Вы не можете скачивать файлы

!ВНИМАНИЕ!
Сайт не предоставляет электронные версии произведений, а занимается лишь коллекционированием и каталогизацией ссылок, присылаемых и публикуемых на форуме нашими читателями. Если вы являетесь правообладателем какого-либо представленного материала и не желаете, чтобы ссылка на него находилась в нашем каталоге, свяжитесь с нами, и мы незамедлительно удалим ее. Файлы для обмена на трекере предоставлены пользователями сайта, и администрация не несет ответственности за их содержание. Просьба не заливать файлы, защищенные авторскими правами, а также файлы нелегального содержания!