Ивановский Торрент трекер
Яндекс.Погода
 

[Цитировать]
HUNTER

Приговоренные / Заключенные / Convicts Страна: США
Жанр: Драма, вестерн
Год выпуска: 1991
Продолжительность: 01:29:01
Перевод: Профессиональный (многоголосый закадровый)
Cубтитры: нет
Режиссер: Питер Мастерсон / Peter Masterson
В ролях: Роберт Дювалл, Лукас Хаас, Джеймс Эрл Джонс, Старлетта Дюпуа, Карлин Глинн, Кэлвин Левелс, Гэри Суонсон, Мел Уинклер, Лэнс Э. Николс, Боб Эдмундсон
Описание: Техас 1902 год. Северное побережье Мексиканского залива. История мальчика-подростка, который работает на ферме, чтобы заработать на надгробный камень для могилы своего отца и извлекает удивительные уроки жизни из общения с охранниками и с заключёнными...

Сэмпл: http://rusfolder.com/41528604
Тип релиза: HDTV 1080i
Контейнер: TS
Видео: AVC/H.264, PAL, 1920x1080 (16:9), 9100 Кбит/сек, 25.000 fps
Аудио: русский, MP-2, 48000 Hz, 192 Кбит/сек, 2 ch

MediaInfo

Видео
Идентификатор : 224 (0xE0)
Идентификатор меню : 1 (0x1)
Формат : AVC
Формат/Информация : Advanced Video Codec
Профиль формата : High@L4.1
Параметр CABAC формата : Да
Параметр ReFrames формата : 3 кадра
Идентификатор кодека : 27
Продолжительность : 1 ч. 29 м.
Вид битрейта : Постоянный
Битрейт : 9100 Кбит/сек
Ширина : 1920 пикселей
Высота : 1080 пикселей
Соотношение сторон : 16:9
Частота кадров : 25,000 кадров/сек
Стандарт вещания : PAL
Цветовое пространство : YUV
Субдискретизация насыщенности : 4:2:0
Битовая глубина : 8 бит
Тип развёртки : Чересстрочная
Порядок развёртки : Верхнее поле первое
Бит/(Пиксели*Кадры) : 0.176
Размер потока : 5,55 Гбайт (93%)
Основные цвета : BT.709
Характеристики трансфера : BT.709
Коэффициенты матрицы : BT.709
Аудио
Идентификатор : 192 (0xC0)
Идентификатор меню : 1 (0x1)
Формат : MPEG Audio
Версия формата : Version 1
Профиль формата : Layer 2
Идентификатор кодека : 3
Продолжительность : 1 ч. 29 м.
Вид битрейта : Постоянный
Битрейт : 192 Кбит/сек
Каналы : 2 канала
Частота : 48,0 КГц
Метод сжатия : С потерями
Задержка видео : 16 мс.
Размер потока : 122 Мбайт (2%)
Язык : Russian

Скриншот с названием фильма

Скриншоты

Показать сообщения:    

Текущее время: 22-Окт 07:18

Часовой пояс: UTC - 1


Вы не можете начинать темы
Вы не можете отвечать на сообщения
Вы не можете редактировать свои сообщения
Вы не можете удалять свои сообщения
Вы не можете голосовать в опросах
Вы не можете прикреплять файлы к сообщениям
Вы не можете скачивать файлы

!ВНИМАНИЕ!
Сайт не предоставляет электронные версии произведений, а занимается лишь коллекционированием и каталогизацией ссылок, присылаемых и публикуемых на форуме нашими читателями. Если вы являетесь правообладателем какого-либо представленного материала и не желаете, чтобы ссылка на него находилась в нашем каталоге, свяжитесь с нами, и мы незамедлительно удалим ее. Файлы для обмена на трекере предоставлены пользователями сайта, и администрация не несет ответственности за их содержание. Просьба не заливать файлы, защищенные авторскими правами, а также файлы нелегального содержания!