Прибавьте громкость / Pump Up the Volume (Аллан Мойле / Allan Moyle) [1990, Канада, США, драма, комедия, музыка, HDTV 1080i] 3x MVO + VO + 2x AVO + Original Eng + Sub Rus, Eng :: Ивановский Торрент трекер
Важное объявление!
У Нас Все раздачи мультитрекерные, при нуле пиров в релизах, можете смело вставать на закачку!
Статистика раздачи
Размер:     |    Зарегистрирован:     |    Скачан:     |   
Нет
 
     
 
 
Автор Сообщение

HUNTER

Стаж:
4 года 11 месяцев
Сообщений:
66112

Репутация: 101

[+] [-]
Вне форума [Профиль] [ЛС]

Pump Up the Volume
Страна: Канада, США
Год выпуска: 1990
Жанр: Драма, Комедия, Музыка
Продолжительность: 1:41:45
Перевод 1: Профессиональный (многоголосый закадровый) [СТС]
Перевод 2: Профессиональный (многоголосый закадровый) [ТВ3]
Перевод 3: Профессиональный (многоголосый закадровый) [ОРТ]
Перевод 4: Одноголосый закадровый [Стасюк]
Перевод 5: Авторский (одноголосый закадровый) [Дохалов]
Перевод 6: Авторский (одноголосый закадровый) [Карповский]
Оригинальная аудиодорожка: Английская
Субтитры: Русские / Английские
Режиссер: Аллан Мойле / Allan Moyle
Производство: New Line Cinema / SC Entertainment
В ролях: Кристиан Слэйтер (Christian Slater), Скотт Полин (Scott Paulin), Эллен Грин (Ellen Greene), Энни Росс (Annie Ross), Энди Романо (Andy Romano), Мими Кеннеди (Mimi Kennedy), Энтони Лучеро (Anthony Lucero), Билли Морриссет (Billy Morrissette), Роберт Шенккан (Robert Schenkkan), Шерил Поллак (Cheryl Pollak) и другие.
Описание: История о студенте колледжа, который открывает свою собственную пиратскую радиостанцию, чтобы помогать друзьям коротать ночи под недозволенную музыку и слушать советы по волнующим их вопросам.
Дополнительная информация: Сведение материала, - Softernet.
Качество: HDTV
Контейнер: MKV
Видео: MPEG2 / 17000 kbps / 1080i / 29.970 fps / 16:9
Аудио 1: Russian / Dolby AC3 / 2.0 / 48 kHz / 192 kbps / 16 bit => [MVO]
Аудио 2: Russian / Dolby AC3 / 2.0 / 48 kHz / 192 kbps / 16 bit => [MVO]
Аудио 3: Russian / Dolby AC3 / 2.0 / 48 kHz / 192 kbps / 16 bit => [MVO]
Аудио 4: Russian / Dolby AC3 / 5.1 / 48 kHz / 448 kbps / 16 bit => [VO]
Аудио 5: Russian / Dolby AC3 / 2.0 / 48 kHz / 192 kbps / 16 bit => [AVO]
Аудио 6: Russian / Dolby AC3 / 2.0 / 48 kHz / 192 kbps / 16 bit => [AVO]
Аудио 7: English / Dolby AC3 / 5.1 / 48 kHz / 448 kbps / 16 bit

MediaInfo

Формат : Matroska
Версия формата : Version 4 / Version 2
Размер файла : 13,7 Гбайт
Продолжительность : 1 ч. 41 м.
Режим общего битрейта : Переменный
Общий поток : 19,2 Мбит/сек
Дата кодирования : UTC 2015-10-19 11:53:39
Программа кодирования : mkvmerge v8.5.0 ('Vanishing Act') 64bit
Библиотека кодирования : libebml v1.3.1 + libmatroska v1.4.2
DURATION : 01:41:22.076000000
NUMBER_OF_FRAMES : 2236
NUMBER_OF_BYTES : 61915
_STATISTICS_WRITING_APP : mkvmerge v8.5.0 ('Vanishing Act') 64bit
_STATISTICS_WRITING_DATE_UTC : 2015-10-19 11:53:39
_STATISTICS_TAGS : BPS DURATION NUMBER_OF_FRAMES NUMBER_OF_BYTES
Видео
Идентификатор : 1
Формат : MPEG Video
Версия формата : Version 2
Профиль формата : Main@High
Параметр BVOP формата : Да
Параметр матрицы формата : Выборочная
Параметр GOP формата : M=3, N=15
Структура изображения : Frame
Идентификатор кодека : V_MPEG2
Идентификатор кодека/Информация : MPEG 1 or 2 Video
Продолжительность : 1 ч. 41 м.
Вид битрейта : Переменный
Битрейт : 17,0 Мбит/сек
Максимальный битрейт : 80,0 Мбит/сек
Ширина : 1920 пикселей
Высота : 1080 пикселей
Соотношение сторон : 16:9
Режим частоты кадров : Постоянный
Частота кадров : 29,970 кадров/сек
Цветовое пространство : YUV
Субдискретизация насыщенности : 4:2:0
Битовая глубина : 8 бит
Тип развёртки : Чересстрочная
Порядок развёртки : Верхнее поле первое
Метод сжатия : С потерями
Бит/(Пиксели*Кадры) : 0.273
Временной код первого кадра : 00:00:00;00
Оригинал временного кода : Group of pictures header
GOP, открыто/закрыто : Открыто
Размер потока : 12,1 Гбайт (88%)
Default : Нет
Forced : Нет
Аудио #1
Идентификатор : 2
Формат : AC-3
Формат/Информация : Audio Coding 3
Расширение режима : CM (complete main)
Параметр Endianness формата : Big
Идентификатор кодека : A_AC3
Продолжительность : 1 ч. 41 м.
Вид битрейта : Постоянный
Битрейт : 192 Кбит/сек
Каналы : 2 канала
Расположение каналов : Front: L R
Частота : 48,0 КГц
Метод сжатия : С потерями
Размер потока : 140 Мбайт (1%)
Заголовок : MVO [СТС]
Язык : Russian
Default : Нет
Forced : Нет
Аудио #2
Идентификатор : 3
Формат : AC-3
Формат/Информация : Audio Coding 3
Расширение режима : CM (complete main)
Параметр Endianness формата : Big
Идентификатор кодека : A_AC3
Продолжительность : 1 ч. 41 м.
Вид битрейта : Постоянный
Битрейт : 192 Кбит/сек
Каналы : 2 канала
Расположение каналов : Front: L R
Частота : 48,0 КГц
Метод сжатия : С потерями
Размер потока : 140 Мбайт (1%)
Заголовок : MVO [ТВ3]
Язык : Russian
Default : Нет
Forced : Нет
Аудио #3
Идентификатор : 4
Формат : AC-3
Формат/Информация : Audio Coding 3
Расширение режима : CM (complete main)
Параметр Endianness формата : Big
Идентификатор кодека : A_AC3
Продолжительность : 1 ч. 41 м.
Вид битрейта : Постоянный
Битрейт : 192 Кбит/сек
Каналы : 2 канала
Расположение каналов : Front: L R
Частота : 48,0 КГц
Метод сжатия : С потерями
Размер потока : 140 Мбайт (1%)
Заголовок : MVO [ОРТ]
Язык : Russian
Default : Нет
Forced : Нет
Аудио #4
Идентификатор : 5
Формат : AC-3
Формат/Информация : Audio Coding 3
Расширение режима : CM (complete main)
Параметр Endianness формата : Big
Идентификатор кодека : A_AC3
Продолжительность : 1 ч. 41 м.
Вид битрейта : Постоянный
Битрейт : 448 Кбит/сек
Каналы : 6 каналов
Расположение каналов : Front: L C R, Side: L R, LFE
Частота : 48,0 КГц
Метод сжатия : С потерями
Размер потока : 326 Мбайт (2%)
Заголовок : VO [Стасюк]
Язык : Russian
Default : Нет
Forced : Нет
Аудио #5
Идентификатор : 6
Формат : AC-3
Формат/Информация : Audio Coding 3
Расширение режима : CM (complete main)
Параметр Endianness формата : Big
Идентификатор кодека : A_AC3
Продолжительность : 1 ч. 41 м.
Вид битрейта : Постоянный
Битрейт : 192 Кбит/сек
Каналы : 2 канала
Расположение каналов : Front: L R
Частота : 48,0 КГц
Метод сжатия : С потерями
Размер потока : 140 Мбайт (1%)
Заголовок : AVO [Дохалов]
Язык : Russian
Default : Нет
Forced : Нет
Аудио #6
Идентификатор : 7
Формат : AC-3
Формат/Информация : Audio Coding 3
Расширение режима : CM (complete main)
Параметр Endianness формата : Big
Идентификатор кодека : A_AC3
Продолжительность : 1 ч. 41 м.
Вид битрейта : Постоянный
Битрейт : 192 Кбит/сек
Каналы : 2 канала
Расположение каналов : Front: L R
Частота : 48,0 КГц
Метод сжатия : С потерями
Размер потока : 140 Мбайт (1%)
Заголовок : AVO [Карповский]
Язык : Russian
Default : Нет
Forced : Нет
Аудио #7
Идентификатор : 8
Формат : AC-3
Формат/Информация : Audio Coding 3
Расширение режима : CM (complete main)
Параметр Endianness формата : Big
Идентификатор кодека : A_AC3
Продолжительность : 1 ч. 41 м.
Вид битрейта : Постоянный
Битрейт : 448 Кбит/сек
Каналы : 6 каналов
Расположение каналов : Front: L C R, Side: L R, LFE
Частота : 48,0 КГц
Метод сжатия : С потерями
Размер потока : 326 Мбайт (2%)
Заголовок : Original
Язык : English
Default : Нет
Forced : Нет
Текст #1
Идентификатор : 9
Формат : UTF-8
Идентификатор кодека : S_TEXT/UTF8
Идентификатор кодека/Информация : UTF-8 Plain Text
Язык : Russian
Default : Нет
Forced : Нет
Текст #2
Идентификатор : 10
Формат : UTF-8
Идентификатор кодека : S_TEXT/UTF8
Идентификатор кодека/Информация : UTF-8 Plain Text
Язык : English
Default : Нет
Forced : Нет

Screenshots


_________________
Показать сообщения:    

Текущее время: Сегодня 17:46

Часовой пояс: GMT



Вы не можете начинать темы
Вы не можете отвечать на сообщения
Вы не можете редактировать свои сообщения
Вы не можете удалять свои сообщения
Вы не можете голосовать в опросах
Вы не можете прикреплять файлы к сообщениям
Вы не можете скачивать файлы