Важное объявление!
У Нас Все раздачи мультитрекерные, при нуле пиров в релизах, можете смело вставать на закачку!
 
Автор Сообщение

HUNTER

Стаж:
4 года 8 месяцев
Сообщений:
62068

Репутация: 101

[+] [-]
Вне форума [Профиль] [ЛС]

Преступник / Criminal-
Страна: США
Студия: BenderSpink, Campbell Grobman Films, Lionsgate, Millennium Films
Жанр: Фантастика, боевик, триллер, драма, криминал, детектив
Год выпуска: 2016
Продолжительность: 01:53:34
Перевод 1: Профессиональный (дублированный) iTunes
Перевод 2: Одноголосый закадровый Д. Есарев
Cубтитры: Русские, Английские
Оригинальная аудиодорожка: Английский
Режиссер: Ариэль Вромен / Ariel Vromen
В ролях: Кевин Костнер, Гари Олдман, Томми Ли Джонс, Райан Рейнольдс, Элис Ив, Галь Гадот, Хорди Молья, Майкл Питт, Амори Ноласко, Антье Трауэ, Скотт Эдкинс, Лара Дэкаро.
Описание: Кто может играть и тягаться с опасным преступником, и мыслить как он?
Видимо, хорошо обученный специальный агент или... такой же преступник, которому и не нужно изображать никого другого. А так как первая операция провалена (агент Билл Поуп, работавший под прикрытием, был убит), ЦРУ решается на повторную операцию, или точнее авантюру. Цель прежняя - разыскать и «нейтрализовать» свихнувшегося хакера с псевдонимом Голландец, который планирует развязать новый мировой конфликт. Но методы на этот раз будут иные - ведь поимкой преступника, согласно плану, будет заниматься... не менее опасный преступник Иерихон Стюарт, которого попытаются сделать новой личностью, «вживив» ему воспоминания погибшего агента Поупа...-Рейтинг
[img]https://rating.kinopoisk.ru/775517.gif[/img]-Сэмпл
Тип релиза: BDRip 720p
Контейнер: MKV
Видео: 1280x536 (2,40:1), 23.976 fps, x264, ~6803 kbps | Encode by SbR
Аудио 1: Russian: 48 kHz, AC3, 3/2 (L,C,R,l,r) + LFE ch, ~384 kbps | Дубляж, iTunes
Аудио 2: Russian: 48 kHz, DTS, 3/2 (L,C,R,l,r) + LFE ch, ~1509 kbps | Одноголосый закадровый, Д. Есарев
Аудио 3: English: 48 kHz, DTS, 3/2 (L,C,R,l,r) + LFE ch, ~1509 kbps
Субтитры: Русские, Английские (Full, SDH)
Формат субтитров: softsub (SRT)

Дополнительно

Субтитры набиты мной по дубляжу (сильно не пинать). С выходом лицензии можно будет заменить.
Перевод Д. Есарева, доступен благодаря ресурсу "Переулок Переводмана". Заказ перевода: Прохожий, napaHouk, gorlum22, Shrooms, Aniskin50, shandorra, kidman644, igrok2012, Старый, Wa1ker, ana2363, ZeDOK, shurikkein, mv73. Работа со звуком Переводман.
Внимание! В переводе присутствует ненормативная лексика!

MediaInfo

Общее
Unique ID : 233690844412209597107838911690996295958 (0xAFCF383109BDD1B2A1C23C18EEADA916)
Complete name : E:\video_rutracker\Criminal.2016.720p.BluRay.2xRus.Eng.x264.mkv
Format : Matroska
Format version : Version 2
File size : 8,10 Гбайт
Duration : 1 ч. 53 м.
Overall bit rate : 10,2 Мбит/сек
Movie name : Criminal.2016.720p | RuTracker | igrok2012
Encoded date : UTC 2016-08-14 11:49:08
Writing application : mkvmerge v8.3.0 ('Over the Horizon') 64bit
Writing library : libebml v1.3.1 + libmatroska v1.4.2
Cover : Yes
Attachments : cover.jpg
Видео
ID : 1
Format : AVC
Format/Info : Advanced Video Codec
Format profile : High@L4.1
Format settings, CABAC : Да
Format settings, ReFrames : 12 кадров
Codec ID : V_MPEG4/ISO/AVC
Duration : 1 ч. 53 м.
Bit rate : 6604 Кбит/сек
Width : 1280 пикселей
Height : 536 пикселей
Display aspect ratio : 2,40:1
Frame rate mode : Постоянный
Frame rate : 23,976 (24000/1001) кадра/сек
Color space : YUV
Chroma subsampling : 4:2:0
Bit depth : 8 бит
Scan type : Прогрессивная
Bits/(Pixel*Frame) : 0.401
Stream size : 5,24 Гбайт (65%)
Title : Encode by SbR
Writing library : x264 core 148 r2705+54 9f484c1 t_mod_Custom [8-bit@all X86_64]
Encoding settings : cabac=1 / ref=12 / deblock=1:-3:-3 / analyse=0x3:0x133 / me=tesa / subme=10 / psy=1 / fade_compensate=0.00 / psy_rd=1.05:0.00 / mixed_ref=1 / me_range=24 / chroma_me=1 / trellis=2 / 8x8dct=1 / cqm=0 / deadzone=21,11 / fast_pskip=0 / chroma_qp_offset=-2 / threads=6 / lookahead_threads=1 / sliced_threads=0 / nr=0 / decimate=1 / interlaced=0 / bluray_compat=0 / constrained_intra=0 / fgo=0 / bframes=9 / b_pyramid=2 / b_adapt=2 / b_bias=0 / direct=3 / weightb=1 / open_gop=0 / weightp=2 / keyint=250 / keyint_min=23 / scenecut=40 / intra_refresh=0 / rc_lookahead=60 / rc=crf / mbtree=0 / crf=15.5000 / qcomp=0.60 / qpmin=0:0:0 / qpmax=69:69:69 / qpstep=4 / vbv_maxrate=62500 / vbv_bufsize=78125 / crf_max=0.0 / nal_hrd=none / filler=0 / ip_ratio=1.40 / pb_ratio=1.30 / aq=1:0.80 / aq-sensitivity=10.00 / aq-factor=1.00:1.00:1.00 / aq2=1:0.75 / aq2-sensitivity=15.00 / aq2-factor=1.00:1.00:1.00 / aq3=1:[0.70:0.70]:[0.70:0.70]:[0.70:0.70]:[0.70:0.70] / aq3-sensitivity=10.00 / aq3-factor=[1.00:1.00]:[1.00:1.00]:[1.00:1.00] / aq3-boundary=192:64:24
Language : English
Default : Да
Forced : Нет
Color range : Limited
Color primaries : BT.709
Transfer characteristics : BT.709
Matrix coefficients : BT.709
Аудио #1
ID : 2
Format : AC-3
Format/Info : Audio Coding 3
Mode extension : CM (complete main)
Format settings, Endianness : Big
Codec ID : A_AC3
Duration : 1 ч. 53 м.
Bit rate mode : Постоянный
Bit rate : 384 Кбит/сек
Channel(s) : 6 каналов
Channel positions : Front: L C R, Side: L R, LFE
Sampling rate : 48,0 КГц
Frame rate : 31,250 кадров/сек (1536 spf)
Compression mode : С потерями
Stream size : 312 Мбайт (4%)
Title : Дубляж, iTunes
Language : Russian
Default : Да
Forced : Нет
Аудио #2
ID : 3
Format : DTS
Format/Info : Digital Theater Systems
Mode : 16
Format settings, Endianness : Big
Codec ID : A_DTS
Duration : 1 ч. 53 м.
Bit rate mode : Постоянный
Bit rate : 1509 Кбит/сек
Channel(s) : 6 каналов
Channel positions : Front: L C R, Side: L R, LFE
Sampling rate : 48,0 КГц
Frame rate : 93,750 кадра/сек (512 spf)
Bit depth : 24 бит
Compression mode : С потерями
Stream size : 1,20 Гбайт (15%)
Title : Одноголосый закадровый, Д. Есарев
Language : Russian
Default : Нет
Forced : Нет
Аудио #3
ID : 4
Format : DTS
Format/Info : Digital Theater Systems
Mode : 16
Format settings, Endianness : Big
Codec ID : A_DTS
Duration : 1 ч. 53 м.
Bit rate mode : Постоянный
Bit rate : 1509 Кбит/сек
Channel(s) : 6 каналов
Channel positions : Front: L C R, Side: L R, LFE
Sampling rate : 48,0 КГц
Frame rate : 93,750 кадра/сек (512 spf)
Bit depth : 24 бит
Compression mode : С потерями
Stream size : 1,20 Гбайт (15%)
Language : English
Default : Нет
Forced : Нет
Текст #1
ID : 5
Format : UTF-8
Codec ID : S_TEXT/UTF8
Codec ID/Info : UTF-8 Plain Text
Language : Russian
Default : Нет
Forced : Нет
Текст #2
ID : 6
Format : UTF-8
Codec ID : S_TEXT/UTF8
Codec ID/Info : UTF-8 Plain Text
Language : English
Default : Нет
Forced : Нет
Текст #3
ID : 7
Format : UTF-8
Codec ID : S_TEXT/UTF8
Codec ID/Info : UTF-8 Plain Text
Title : SDH
Language : English
Default : Нет
Forced : Нет
Меню
00:00:00.000 : en:00:00:00.000
00:10:41.266 : en:00:10:41.266
00:15:32.265 : en:00:15:32.265
00:23:45.340 : en:00:23:45.340
00:30:56.563 : en:00:30:56.563
00:36:01.367 : en:00:36:01.367
00:45:36.317 : en:00:45:36.317
00:48:48.509 : en:00:48:48.509
00:54:51.455 : en:00:54:51.455
01:01:46.244 : en:01:01:46.244
01:08:32.608 : en:01:08:32.608
01:16:11.609 : en:01:16:11.609
01:22:20.143 : en:01:22:20.143
01:29:52.011 : en:01:29:52.011
01:36:46.092 : en:01:36:46.092
01:42:08.497 : en:01:42:08.497

Скриншоты



_________________
Показать сообщения:    

Текущее время: Сегодня 17:08

Часовой пояс: GMT



Вы не можете начинать темы
Вы не можете отвечать на сообщения
Вы не можете редактировать свои сообщения
Вы не можете удалять свои сообщения
Вы не можете голосовать в опросах
Вы не можете прикреплять файлы к сообщениям
Вы не можете скачивать файлы
Наши партнеры: интернет магазин Ивановского трикотажа textilla.ru