Важное объявление!
У Нас Все раздачи мультитрекерные, при нуле пиров в релизах, можете смело вставать на закачку!
 
Автор Сообщение

димитри37

Стаж:
3 года 11 месяцев
Сообщений:
1236

Репутация: 127

[+] [-]
Вне форума [Профиль] [ЛС]

Преступления сладострастия / Crimenes de Lujuria
Страна: Мексика / Lions Gate
Жанр: триллер
Год выпуска: 2011
Продолжительность: 01:29:49
Перевод: Профессиональный (многоголосый закадровый) [Лицензия] + Spanish (отдельно)
Cубтитры: Russian, English
Режиссер: Уолтер Доэхнер / Walter Doehner
В ролях: Плитарко Хаза, Мария Де Ла Фуэнте, Хавьер Диаз Дуэна, Алехандро Рельмонте
Описание: Что связывает Ребекку и Артуро? Разумеется, всепоглощающая страсть. Возможно, любовь. Но прежде всего - удачное стечение обстоятельств. Ребекку привлекает перспектива избавиться от опостылевшего мужа и приобрести нового любовника. Артуро жаждет получить не столько девушку, сколько ее деньги. Проще сказать, чем сделать...
|
Качество: HDRip-AVC [BDRip 720p]
Формат: MKV
Видео кодек: AVC
Аудио кодек: АС3
Видео: 1867 Кбит/сек, 992*558 (16:9), в 24,000 кадр/сек, AVC
Аудио #1: Russian, 384 Кбит/сек, 48,0 КГц, 16 бит, 6 канала(ов), AC-3
Аудио #2: Spanish, 384 Кбит/сек, 48,0 КГц, 16 бит, 6 канала(ов), AC-3 (отдельно)

MediaInfo

Общее
Уникальный идентификатор : 219756411545390662661981108098688626499 (0xA5538B9BD64B7DCEACB5CB24F18C2F43)
Полное имя : J:\Prestuplenija_sladostrastija_2011\Prestuplenija_sladostrastija_2011_HDRip_AVC_MVO.mkv
Формат : Matroska
Размер файла : 1,41 Гбайт
Продолжительность : 1 ч. 29 м.
Общий поток : 2252 Кбит/сек
Название фильма : Crimenes de Lujuria 2011 (Rip by S.T.A.L.K.E.R.2)
Дата кодирования : UTC 2013-05-10 06:32:42
Программа кодирования : mkvmerge v6.1.0 ('Old Devil') built on Mar 2 2013 14:32:37
Библиотека кодирования : libebml v1.3.0 + libmatroska v1.4.0
Видео
Идентификатор : 1
Формат : AVC
Формат/Информация : Advanced Video Codec
Профиль формата : High@L4.1
Параметр CABAC формата : Да
Параметр ReFrames формата : 10 кадры
Идентификатор кодека : V_MPEG4/ISO/AVC
Продолжительность : 1 ч. 29 м.
Битрейт : 1867 Кбит/сек
Ширина : 992 пикс.
Высота : 558 пикс.
Соотношение сторон : 16:9
Частота кадров : 24,000 кадр/сек
Цветовое пространство : YUV
Подвыборка цветности : 4:2:0
Битовая глубина : 8 бит
Тип развёртки : Прогрессивная
Бит/(Пиксели*Кадры) : 0.141
Размер потока : 1,14 Гбайт (81%)
Библиотека кодирования : x264 core 130 r2273 b3065e6
Настройки программы : cabac=1 / ref=10 / deblock=1:-2:-1 / analyse=0x3:0x133 / me=umh / subme=9 / psy=1 / psy_rd=0.98:0.04 / mixed_ref=1 / me_range=32 / chroma_me=1 / trellis=2 / 8x8dct=1 / cqm=0 / deadzone=21,11 / fast_pskip=1 / chroma_qp_offset=-3 / threads=12 / lookahead_threads=3 / sliced_threads=0 / nr=0 / decimate=0 / interlaced=0 / bluray_compat=0 / constrained_intra=0 / bframes=11 / b_pyramid=2 / b_adapt=2 / b_bias=0 / direct=1 / weightb=1 / open_gop=0 / weightp=2 / keyint=240 / keyint_min=24 / scenecut=40 / intra_refresh=0 / rc_lookahead=40 / rc=2pass / mbtree=1 / bitrate=1867 / ratetol=1.0 / qcomp=0.60 / qpmin=10 / qpmax=51 / qpstep=4 / cplxblur=20.0 / qblur=0.5 / vbv_maxrate=50000 / vbv_bufsize=50000 / nal_hrd=none / ip_ratio=1.40 / aq=1:1.00
Язык : English
Аудио
Идентификатор : 2
Формат : AC-3
Формат/Информация : Audio Coding 3
Расширение режима : CM (complete main)
Идентификатор кодека : A_AC3
Продолжительность : 1 ч. 29 м.
Вид битрейта : Постоянный
Битрейт : 384 Кбит/сек
Канал(ы) : 6 канала(ов)
Расположение каналов : Front: L C R, Side: L R, LFE
Частота : 48,0 КГц
Битовая глубина : 16 бит
Метод сжатия : С потерями
Размер потока : 247 Мбайт (17%)
Заголовок : DD 5.1 @ 384 kbps - MVO, R5
Язык : Russian
Текст #1
Идентификатор : 3
Формат : UTF-8
Идентификатор кодека : S_TEXT/UTF8
Идентификатор кодека/Информация : UTF-8 Plain Text
Язык : Russian
Текст #2
Идентификатор : 4
Формат : UTF-8
Идентификатор кодека : S_TEXT/UTF8
Идентификатор кодека/Информация : UTF-8 Plain Text
Язык : English

Скриншоты

Показать сообщения:    

Текущее время: Сегодня 05:00

Часовой пояс: GMT



Вы не можете начинать темы
Вы не можете отвечать на сообщения
Вы не можете редактировать свои сообщения
Вы не можете удалять свои сообщения
Вы не можете голосовать в опросах
Вы не можете прикреплять файлы к сообщениям
Вы не можете скачивать файлы
Наши партнеры: интернет магазин Ивановского трикотажа textilla.ru