Важное объявление!
У Нас Все раздачи мультитрекерные, при нуле пиров в релизах, можете смело вставать на закачку!
 
Автор Сообщение

HUNTER

Стаж:
4 года 7 месяцев
Сообщений:
61564

Репутация: 101

[+] [-]
Вне форума [Профиль] [ЛС]

Преследуемый / Травля / Охота / The Hunted
Страна: США
Жанр: боевик, триллер, драма
Год выпуска: 1995
Продолжительность: 01:50:14
Перевод: Профессиональный (двухголосый закадровый) | Премьер
+ Профессиональный (двухголосый закадровый)
+ Авторский (одноголосый закадровый) | Ю.Живов
+ Авторский (одноголосый закадровый) | В.Горчаков
+ Авторский (одноголосый закадровый) | А.Гаврилов
+ Авторский (одноголосый закадровый) | А.Алексеев
Cубтитры: английские, немецкие
Оригинальная аудиодорожка: английский-Режиссер: Дж.Ф. Лоутон / J.F. Lawton-В ролях: Кристофер Ламберт, Джон Лоун, Джоан Чэнь, Ёсио Харада, Ёко Симада, Мари Нацуки, Так Кубота, Масуми Окада, Тацуя Ириэ, Майкл Уоррен-Описание: Приехавший по делам фирмы в Японию нью-йоркский бизнесмен Поль Расин проводит романтическую ночь с очаровательной незнакомкой. Став случайным свидетелем ее убийства, он попадает в водоворот кровавых и загадочных событий, связанных с давней враждой между двумя древними и могущественными кланами ниндзя. И, став объектом преследования, Поль принимает бой...-Релиз:
-Качество видео: BDRip
Формат видео: MKV
Видео: 1280x694 at 23.976 fps, x264@L4.1, ~8988 kbps avg
Аудио 1: Dolby Digital Audio Russian 192 kbps 2.0 / 48 kHz / 192 kbps / DN -4dB |Двухголосый закадровый, Премьер|
Аудио 2: Dolby Digital Audio Russian 192 kbps 2.0 / 48 kHz / 192 kbps / DN -4dB |Двухголосый закадровый|
Аудио 3: Russian DTS Core: 5.1 / 48 kHz / 1509 kbps / 16-bit) |Ю.Живов|
Аудио 4: Russian DTS Core: 5.1 / 48 kHz / 1509 kbps / 16-bit) |В.Горчаков|
Аудио 5: Dolby Digital Audio Russian 192 kbps 2.0 / 48 kHz / 192 kbps / DN -4dB |А.Гаврилов|
Аудио 6: Dolby Digital Audio Russian 192 kbps 2.0 / 48 kHz / 192 kbps / DN -4dB |А.Алексеев|
Аудио 7: English (DTS Core: 5.1 / 48 kHz / 1509 kbps / 16-bit)-

Дополнительно

Цитата:
Цитата:

  • За подержку релиза спасибо luka69, barvinok13, Timur, gelom, neovos, Denis1980, irrlicht.
  • Дорожки №3,4 получены наложением чистых голосов на центральный канал оригинального DTS-HD MA.
  • За оцифровку дорожки Премьер с VHS спасибо Fikaloid, за Гаврилова спасибо angelseven77, за А.Алексеева благодарим Evil ED 86.
  • Сохранены оригинальные чаптеры как на Blu-ray.

MI

Код:
Format                      : Matroska
Format version              : Version 2
File size                   : 11.0 GiB
Duration                    : 1 h 50 min
Overall bit rate            : 14.3 Mb/s
Movie name                  : The Hunted 1995
Encoded date                : UTC 2016-09-03 12:32:12
Writing application         : mkvmerge v4.2.0 ('No Talking') сборка от Jul 28 2010 18:38:23
Writing library             : libebml v1.0.0 + libmatroska v1.0.0
Cover                       : Yes
Attachments                 : cover.jpg
Video
ID                          : 1
Format                      : AVC
Format/Info                 : Advanced Video Codec
Format profile              : High@L4.1
Format settings, CABAC      : Yes
Format settings, ReFrames   : 9 frames
Codec ID                    : V_MPEG4/ISO/AVC
Duration                    : 1 h 50 min
Bit rate                    : 8 707 kb/s
Width                       : 1 280 pixels
Height                      : 694 pixels
Display aspect ratio        : 1.85:1
Frame rate mode             : Constant
Frame rate                  : 23.976 (24000/1001) FPS
Color space                 : YUV
Chroma subsampling          : 4:2:0
Bit depth                   : 8 bits
Scan type                   : Progressive
Bits/(Pixel*Frame)          : 0.409
Stream size                 : 6.70 GiB (61%)
Writing library             : x264 core 148 r2705.16 d50a22e VietHD_Custom_64
Encoding settings           : cabac=1 / ref=9 / deblock=1:-3:-3 / analyse=0x3:0x133 / me=umh / subme=10 / psy=1 / fade_compensate=0.00 / psy_rd=1.20:0.00 / mixed_ref=1 / me_range=24 / chroma_me=1 / trellis=2 / 8x8dct=1 / cqm=0 / deadzone=21,11 / fast_pskip=0 / chroma_qp_offset=-2 / threads=56 / lookahead_threads=5 / sliced_threads=0 / nr=0 / decimate=0 / interlaced=0 / bluray_compat=0 / constrained_intra=0 / fgo=0 / bframes=10 / b_pyramid=2 / b_adapt=2 / b_bias=0 / direct=3 / weightb=1 / open_gop=0 / weightp=2 / keyint=250 / keyint_min=23 / scenecut=40 / intra_refresh=0 / rc_lookahead=60 / rc=crf / mbtree=0 / crf=17.0000 / qcomp=0.55 / qpmin=0:0:0 / qpmax=69:69:69 / qpstep=4 / vbv_maxrate=62500 / vbv_bufsize=78125 / crf_max=0.0 / nal_hrd=none / filler=0 / ip_ratio=1.40 / pb_ratio=1.30 / aq=3:0.55 / aq-sensitivity=10.00 / aq-factor=1.00:1.00:1.00 / aq2=0 / aq3=0
Language                    : English
Default                     : No
Forced                      : No
Statistics Tags Issue       : mkvmerge v8.3.0 ('Over the Horizon') 64bit 2016-09-02 07:40:30 / mkvmerge v4.2.0 ('No Talking') сборка от Jul 28 2010 18:38:23 2016-09-03 12:32:12
FromStats_BitRate           : 8988970
FromStats_Duration          : 01:50:14.858000000
FromStats_FrameCount        : 158598
FromStats_StreamSize        : 7432595575
Audio #1
ID                          : 2
Format                      : AC-3
Format/Info                 : Audio Coding 3
Mode extension              : CM (complete main)
Format settings, Endianness : Big
Codec ID                    : A_AC3
Duration                    : 1 h 50 min
Bit rate mode               : Constant
Bit rate                    : 192 kb/s
Channel(s)                  : 2 channels
Channel positions           : Front: L R
Sampling rate               : 48.0 kHz
Frame rate                  : 31.250 FPS (1536 spf)
Compression mode            : Lossy
Stream size                 : 151 MiB (1%)
Title                       : Двухголосый закадровый, Премьер
Language                    : Russian
Default                     : Yes
Forced                      : No
Statistics Tags Issue       : mkvmerge v8.3.0 ('Over the Horizon') 64bit 2016-09-02 07:40:30 / mkvmerge v4.2.0 ('No Talking') сборка от Jul 28 2010 18:38:23 2016-09-03 12:32:12
FromStats_BitRate           : 192000
FromStats_Duration          : 01:50:15.008000000
FromStats_FrameCount        : 206719
FromStats_StreamSize        : 158760192
Audio #2
ID                          : 3
Format                      : AC-3
Format/Info                 : Audio Coding 3
Mode extension              : CM (complete main)
Format settings, Endianness : Big
Codec ID                    : A_AC3
Duration                    : 1 h 50 min
Bit rate mode               : Constant
Bit rate                    : 192 kb/s
Channel(s)                  : 2 channels
Channel positions           : Front: L R
Sampling rate               : 48.0 kHz
Frame rate                  : 31.250 FPS (1536 spf)
Compression mode            : Lossy
Stream size                 : 151 MiB (1%)
Title                       : Двухголосый закадровый
Language                    : Russian
Default                     : No
Forced                      : No
Statistics Tags Issue       : mkvmerge v8.3.0 ('Over the Horizon') 64bit 2016-09-02 07:40:30 / mkvmerge v4.2.0 ('No Talking') сборка от Jul 28 2010 18:38:23 2016-09-03 12:32:12
FromStats_BitRate           : 192000
FromStats_Duration          : 01:50:15.008000000
FromStats_FrameCount        : 206719
FromStats_StreamSize        : 158760192
Audio #3
ID                          : 4
Format                      : DTS
Format/Info                 : Digital Theater Systems
Mode                        : 16
Format settings, Endianness : Big
Codec ID                    : A_DTS
Duration                    : 1 h 50 min
Bit rate mode               : Constant
Bit rate                    : 1 509 kb/s
Channel(s)                  : 6 channels
Channel positions           : Front: L C R, Side: L R, LFE
Sampling rate               : 48.0 kHz
Frame rate                  : 93.750 FPS (512 spf)
Bit depth                   : 16 bits
Compression mode            : Lossy
Stream size                 : 1.16 GiB (11%)
Title                       : Ю.Живов
Language                    : Russian
Default                     : No
Forced                      : No
Audio #4
ID                          : 5
Format                      : DTS
Format/Info                 : Digital Theater Systems
Mode                        : 16
Format settings, Endianness : Big
Codec ID                    : A_DTS
Duration                    : 1 h 50 min
Bit rate mode               : Constant
Bit rate                    : 1 509 kb/s
Channel(s)                  : 6 channels
Channel positions           : Front: L C R, Side: L R, LFE
Sampling rate               : 48.0 kHz
Frame rate                  : 93.750 FPS (512 spf)
Bit depth                   : 16 bits
Compression mode            : Lossy
Stream size                 : 1.16 GiB (11%)
Title                       : В.Горчаков
Language                    : Russian
Default                     : No
Forced                      : No
Audio #5
ID                          : 6
Format                      : AC-3
Format/Info                 : Audio Coding 3
Mode extension              : CM (complete main)
Format settings, Endianness : Big
Codec ID                    : A_AC3
Duration                    : 1 h 50 min
Bit rate mode               : Constant
Bit rate                    : 192 kb/s
Channel(s)                  : 2 channels
Channel positions           : Front: L R
Sampling rate               : 48.0 kHz
Frame rate                  : 31.250 FPS (1536 spf)
Compression mode            : Lossy
Stream size                 : 151 MiB (1%)
Title                       : Одноголосый закадровый, А.Гаврилов
Language                    : Russian
Default                     : No
Forced                      : No
Statistics Tags Issue       : mkvmerge v8.3.0 ('Over the Horizon') 64bit 2016-09-02 07:40:30 / mkvmerge v4.2.0 ('No Talking') сборка от Jul 28 2010 18:38:23 2016-09-03 12:32:12
FromStats_BitRate           : 192000
FromStats_Duration          : 01:50:11.584000000
FromStats_FrameCount        : 206612
FromStats_StreamSize        : 158678016
Audio #6
ID                          : 7
Format                      : AC-3
Format/Info                 : Audio Coding 3
Mode extension              : CM (complete main)
Format settings, Endianness : Big
Codec ID                    : A_AC3
Duration                    : 1 h 50 min
Bit rate mode               : Constant
Bit rate                    : 192 kb/s
Channel(s)                  : 2 channels
Channel positions           : Front: L R
Sampling rate               : 48.0 kHz
Frame rate                  : 31.250 FPS (1536 spf)
Compression mode            : Lossy
Stream size                 : 151 MiB (1%)
Title                       : Одноголосый закадровый, А.Алексеев
Language                    : Russian
Default                     : No
Forced                      : No
Statistics Tags Issue       : mkvmerge v8.3.0 ('Over the Horizon') 64bit 2016-09-02 07:40:30 / mkvmerge v4.2.0 ('No Talking') сборка от Jul 28 2010 18:38:23 2016-09-03 12:32:12
FromStats_BitRate           : 192000
FromStats_Duration          : 01:50:15.008000000
FromStats_FrameCount        : 206719
FromStats_StreamSize        : 158760192
Audio #7
ID                          : 11
Format                      : DTS
Format/Info                 : Digital Theater Systems
Mode                        : 16
Format settings, Endianness : Big
Muxing mode                 : Header stripping
Codec ID                    : A_DTS
Duration                    : 1 h 50 min
Bit rate mode               : Constant
Bit rate                    : 1 509 kb/s
Channel(s)                  : 6 channels
Channel positions           : Front: L C R, Side: L R, LFE
Sampling rate               : 48.0 kHz
Frame rate                  : 93.750 FPS (512 spf)
Bit depth                   : 16 bits
Compression mode            : Lossy
Stream size                 : 1.16 GiB (11%)
Language                    : English
Default                     : No
Forced                      : No
Text #1
ID                          : 8
Format                      : UTF-8
Codec ID                    : S_TEXT/UTF8
Codec ID/Info               : UTF-8 Plain Text
Title                       : Forced
Language                    : English
Default                     : No
Forced                      : Yes
Statistics Tags Issue       : mkvmerge v8.3.0 ('Over the Horizon') 64bit 2016-09-02 07:40:30 / mkvmerge v4.2.0 ('No Talking') сборка от Jul 28 2010 18:38:23 2016-09-03 12:32:12
FromStats_BitRate           : 7
FromStats_Duration          : 01:38:15.306000000
FromStats_FrameCount        : 195
FromStats_StreamSize        : 5666
Text #2
ID                          : 9
Format                      : UTF-8
Codec ID                    : S_TEXT/UTF8
Codec ID/Info               : UTF-8 Plain Text
Language                    : English
Default                     : No
Forced                      : No
Statistics Tags Issue       : mkvmerge v8.3.0 ('Over the Horizon') 64bit 2016-09-02 07:40:30 / mkvmerge v4.2.0 ('No Talking') сборка от Jul 28 2010 18:38:23 2016-09-03 12:32:12
FromStats_BitRate           : 26
FromStats_Duration          : 01:43:23.489000000
FromStats_FrameCount        : 699
FromStats_StreamSize        : 20330
Text #3
ID                          : 10
Format                      : UTF-8
Codec ID                    : S_TEXT/UTF8
Codec ID/Info               : UTF-8 Plain Text
Language                    : German
Default                     : No
Forced                      : No
Statistics Tags Issue       : mkvmerge v8.3.0 ('Over the Horizon') 64bit 2016-09-02 07:40:30 / mkvmerge v4.2.0 ('No Talking') сборка от Jul 28 2010 18:38:23 2016-09-03 12:32:12
FromStats_BitRate           : 29
FromStats_Duration          : 01:45:07.051000000
FromStats_FrameCount        : 702
FromStats_StreamSize        : 23277
Menu
00:00:00.000                : en:00:00:00.000
00:12:05.934                : en:00:12:05.934
00:19:06.604                : en:00:19:06.604
00:25:44.960                : en:00:25:44.960
00:31:28.428                : en:00:31:28.428
00:38:51.246                : en:00:38:51.246
00:45:47.745                : en:00:45:47.745
00:53:14.316                : en:00:53:14.316
01:01:58.006                : en:01:01:58.006
01:07:29.170                : en:01:07:29.170
01:11:45.843                : en:01:11:45.843
01:15:21.892                : en:01:15:21.892
01:23:49.483                : en:01:23:49.483
01:31:19.849                : en:01:31:19.849
01:37:24.630                : en:01:37:24.630
01:45:40.376                : en:01:45:40.376

Скриншоты


_________________
Показать сообщения:    

Текущее время: Сегодня 17:23

Часовой пояс: GMT



Вы не можете начинать темы
Вы не можете отвечать на сообщения
Вы не можете редактировать свои сообщения
Вы не можете удалять свои сообщения
Вы не можете голосовать в опросах
Вы не можете прикреплять файлы к сообщениям
Вы не можете скачивать файлы
Наши партнеры: интернет магазин Ивановского трикотажа textilla.ru