Важное объявление!
У Нас Все раздачи мультитрекерные, при нуле пиров в релизах, можете смело вставать на закачку!
Статистика раздачи
Размер:     |    Зарегистрирован:     |    Скачан:     |   
Нет
 
     
 
 
Автор Сообщение

HUNTER

Стаж:
5 лет
Сообщений:
68401

Репутация: 101

[+] [-]
Вне форума [Профиль] [ЛС]

Прекрасный мир / Le beau monde
Страна: Франция
Жанр: Комедия, драма
Год выпуска: 2014
Продолжительность: 01:28:08
Перевод: Профессиональный (многоголосый закадровый) 1 канал
Cубтитры: нет
Оригинальная аудиодорожканет
Режиссер: Джюли Лопес-Кюрваль / Julie Lopes-Curval
В ролях: Ана Жирардо, Бастьен Буллон, Батист Лекаплен, Орелия Пети, Серхи Лопес, Индия Хэйр, Стефан Биссо, Бланш Клюзе, Дэвид Ури
Описание: Элизе 20 лет, она живет в Байе во Франции. Страстная вышивальщица, она придумывает новые вышивки, она создает, она ищет. Она не знает, что делать со своим увлечением, пока не встречает Аньес, богатую парижанку, которая помогает ей поступить в престижную школу в Париже. Не раздумывая, Элиза оставляет прошлую жизнь позади, только чтобы жить в Париже. Там она знакомится с Антуаном, сыном Аньес. Между ними возникает страстная любовь. Антуан находит в Элизе ту искренность и наивность, которые ему так не хватало в среде буржуа, которых он ненавидит. А Элиза благодаря Антуану обнаруживает внутренний мир элиты, который её завораживает…
Сэмпл: http://multi-up.com/1114363
Качество видео: HDTV1080i
Формат видео: TS
Видео: AVC, 1920x1080 (16:9), 25.000 fps, 6 145 Kbps (0.119 bit/pixel)
Аудио: MP2, 48.0 KHz, 2 ch, 192 Kbps, CBR (Russian)

MediaInfo

Общее
Идентификатор : 7 (0x7)
Полное имя : M:\Прекрасный мир.ts
Формат : MPEG-TS
Размер файла : 4,11 Гбайт
Продолжительность : 1 ч. 28 м.
Режим общего битрейта : Переменный
Общий поток : 6669 Кбит/сек
Видео
Идентификатор : 2141 (0x85D)
Идентификатор меню : 21004 (0x520C)
Формат : AVC
Формат/Информация : Advanced Video Codec
Профиль формата : Main@L4
Параметр CABAC формата : Да
Параметр ReFrames формата : 4 кадра
Идентификатор кодека : 27
Продолжительность : 1 ч. 28 м.
Битрейт : 6145 Кбит/сек
Ширина : 1920 пикселей
Высота : 1080 пикселей
Соотношение сторон : 16:9
Частота кадров : 25,000 кадров/сек
Цветовое пространство : YUV
Субдискретизация насыщенности : 4:2:0
Битовая глубина : 8 бит
Тип развёртки : Чересстрочная
Метод сохранения типа развёртки : Раздельные поля
Порядок развёртки : Верхнее поле первое
Бит/(Пиксели*Кадры) : 0.119
Размер потока : 3,78 Гбайт (92%)
Цветовой диапазон : Limited
Основные цвета : BT.709
Характеристики трансфера : BT.709
Коэффициенты матрицы : BT.709
Аудио
Идентификатор : 2142 (0x85E)
Идентификатор меню : 21004 (0x520C)
Формат : MPEG Audio
Версия формата : Version 1
Профиль формата : Layer 2
Идентификатор кодека : 4
Продолжительность : 1 ч. 28 м.
Вид битрейта : Постоянный
Битрейт : 192 Кбит/сек
Каналы : 2 канала
Частота : 48,0 КГц
Метод сжатия : С потерями
Задержка видео : -12 мс.
Размер потока : 121 Мбайт (3%)
Язык : Russian

Скриншоты


_________________
Показать сообщения:    

Текущее время: Сегодня 10:00

Часовой пояс: GMT



Вы не можете начинать темы
Вы не можете отвечать на сообщения
Вы не можете редактировать свои сообщения
Вы не можете удалять свои сообщения
Вы не можете голосовать в опросах
Вы не можете прикреплять файлы к сообщениям
Вы не можете скачивать файлы