Важное объявление!
У Нас Все раздачи мультитрекерные, при нуле пиров в релизах, можете смело вставать на закачку!
 
Автор Сообщение

димитри37

Стаж:
4 года
Сообщений:
1236

Репутация: 127

[+] [-]
Вне форума [Профиль] [ЛС]

Прекрасные создания / Beautiful Creatures
«Раскроются тёмные тайны»
Страна: США
Жанр: фэнтези, драма, мелодрама
Год выпуска: 2013
Продолжительность: 02:03:44
Перевод: Профессиональный (полное дублирование) [Звук с TS]
Субтитры: нет
Режиссер: Ричард ЛаГравенес / Richard LaGravenese
В ролях: Олден Эйренрайк, Элис Энглерт, Джереми Айронс, Виола Дэвис, Эмми Россам, Томас Манн, Эмма Томпсон, Айлин Эткинс, Марго Мартиндейл, Зоя Дойч, Тиффани Бун, Рэйчел Броснахэн
Описание: Лена Дюкейн отличается от всех, кого когда-либо видел маленький южный город Гатлин, она борется с собой, пытаясь усмирить свою силу и проклятие, веками преследовавшее ее семью. Но даже в разросшихся садах, в мрачных болотах и на разрушенных могильниках позабытого Юга секрет не будет жить вечно.
Итана Уэйта, считающего дни до своего бегства из Гатлина, преследуют сны о прекрасной девушке, которую он никогда не встречал. Когда Лена приезжает жить в дом на самой старой и самой жуткой из всех плантаций города, Итан безоговорочно влюбляется в нее и целенаправленно старается раскрыть секрет их удивительной связи.


MPAA: PG-13 - Детям до 13 лет просмотр не желателен
Сценарий: Ричард ЛаГравенес / Richard LaGravenese, Ками Гарсиа / Kami Garcia, Маргарет Стол / Margaret Stohl
Продюсер: Бродерик Джонсон / Broderick Johnson, Эндрю А. Косов / Andrew A. Kosove, Молли Смит / Molly Smith, Эрвин Стофф / Erwin Stoff, Брэд Аренсмен / Brad Arensman
Оператор: Филипп Русло / Philippe Rousselot
Композитор: The New No2 / Thenewno2
Бюджет: $60 000 000
Сборы в США: $19 452 138
Сборы в России: $4 103 220
Сборы в мире: $58 857 850
Мировая премьера: 18 апреля 2011
Релиз на DVD: 21 мая 2013, «West Video»
Релиз на Blu-ray: 21 мая 2013, «West Video»
Качество: DVDRip
Контейнер: AVI
Видео: XviD, 720x304 (2.35:1), 1485 kbps, 23,976 fps, 0,283 bpp
Аудио: MP3 / 2.0 / 48 kHz / 128 kbps /

Знаете ли Вы, что...

  • Кастинг фильма начался в конце 2011 года. Вскоре было объявлено, что главных героев - Итана Уэйта и Лену Дюкейн - сыграют Джек О’Коннелл и Элис Энглерт. О’Коннелл позже выбыл из фильма из-за конфликта с расписанием съемок, и роль Итана Уэйта досталась Олдену Эйренрайху.
  • Съемки в Луизиане приходилось приостанавливать в связи с предупреждением о торнадо.
  • Режиссер Ричард ЛаГравенес хотел как можно меньше использовать зеленый фон. И потому в сцене праздничного ужина Кастера съемочная площадка была сделана таким образом, что стол вращался вместе с актерами на привинченных стульях. Пол под столом тоже вращался, но в противоположном направлении и с Элис Энглерт и Эмми Россам, которые были привязаны к платформе. Вся эта площадка была построена на гидравлике, чтобы она могла качаться. Скорость вращения регулировалась от 1 до 10, актеров вращали на восьмой скорости. В общей сложности ушло три дня, чтобы снять эту сцену. Страдающий от морской болезни Ричард ЛаГравенес принимал Dramamine во время съемок этой сцены.
  • В сцене со снегом песня, которая играет на фоне, - это «Needle and Thread» («Иголка и нить»). Она была придумана и записана актрисой Элис Энглерт в ее номере отеля в Новом Орлеане во время препродакшна. Песня понравилась режиссеру Ричарду ЛаГравенесу, и он решил использовать ее в фильме.
  • Неудачное прочтение Итаном стихотворения Чарльза Буковски на самом деле появилось из-за трудностей с запоминанием порядка строк у Олдена Эйренрайка, что рассмешило Элис Энглерт. Он ошибся только в одном дубле, но режиссеру Ричарду ЛаГравенесу понравилась идея с Ромео, который пытается произвести впечатление на Джульетту и так проваливается с поэзией.
  • Оригинальный саундтрек к фильму был сочинен группой Thenewno2 (Дхани Харрисон, Пол Хикс, Джонатан Садофф). Группа начала создание саундтрека в студии Friar Park в городе Хенли-он-Темза. Гитарное соло для любовной темы Дхани заимствовал у своего отца, Джорджа Харрисона, из песни «While My Guitar Gently Weeps». В итоге саундтрек был записан на Abbey Road в Studio 2.
  • Роль Аммы на самом деле является комбинацией двух персонажей из книги: Амма - экономка-пророк, Мариан - библиотекарь и лучший друг покойной матери Итана. Сценарист и режиссер Ричард ЛаГравенес скомбинировал две эти роли в надежде привлечь внимание актрисы Виолы Дэвис. Она была единственной, кого он видел в этой роли.
  • Стихи на стенах и потолке в комнате Лены взяты из творчества четырех поэтов: Уильяма Блейка, Альфреда Лорда Теннисона, Эдны Сент-Винсент Миллей и Руми (Rumi).

Media Info

General
Complete name : G:\Prekrasnye.sozdanija.2013.Dt.DVDRip.1400.avi
Format : AVI
Format/Info : Audio Video Interleave
File size : 1.41 GiB
Duration : 2h 3mn
Overall bit rate mode : Variable
Overall bit rate : 1 626 Kbps
Writing application : VirtualDubMod 1.5.10.3 | www.virtualdub-fr.org || (build 2550/release)
Writing library : VirtualDubMod build 2550/release
Video
ID : 0
Format : MPEG-4 Visual
Format profile : Advanced Simple@L5
Format settings, BVOP : 2
Format settings, QPel : No
Format settings, GMC : No warppoints
Format settings, Matrix : Default (H.263)
Codec ID : XVID
Codec ID/Hint : XviD
Duration : 2h 3mn
Bit rate : 1 485 Kbps
Width : 720 pixels
Height : 304 pixels
Display aspect ratio : 2.35:1
Frame rate : 23.976 fps
Color space : YUV
Chroma subsampling : 4:2:0
Bit depth : 8 bits
Scan type : Progressive
Compression mode : Lossy
Bits/(Pixel*Frame) : 0.283
Stream size : 1.28 GiB (91%)
Writing library : XviD 1.2.1 (UTC 2008-12-04)
Audio
ID : 1
Format : MPEG Audio
Format version : Version 1
Format profile : Layer 3
Mode : Joint stereo
Codec ID : 55
Codec ID/Hint : MP3
Duration : 2h 3mn
Bit rate mode : Variable
Bit rate : 128 Kbps
Channel(s) : 2 channels
Sampling rate : 48.0 KHz
Compression mode : Lossy
Stream size : 113 MiB (8%)
Alignment : Aligned on interleaves
Interleave, duration : 24 ms (0.58 video frame)
Interleave, preload duration : 486 ms

Скриншот с названием фильма

Скриншоты

-
Показать сообщения:    

Текущее время: Сегодня 19:20

Часовой пояс: GMT



Вы не можете начинать темы
Вы не можете отвечать на сообщения
Вы не можете редактировать свои сообщения
Вы не можете удалять свои сообщения
Вы не можете голосовать в опросах
Вы не можете прикреплять файлы к сообщениям
Вы не можете скачивать файлы
Наши партнеры: интернет магазин Ивановского трикотажа textilla.ru