Ивановский Торрент трекер
Яндекс.Погода
 

[Цитировать]
HUNTER

Прежде чем мы расстанемся / Before We Go
Страна: США
Студия: G4 Productions, Nutmeg Film Productions, Wonderland Sound and Vision
Жанр: драма, мелодрама
Год выпуска: 2014
Продолжительность: 01:35:24
Перевод: Субтитры
Cубтитры: русские, английские
Оригинальная аудиодорожка: английский
Режиссер: Крис Эванс / Chris Evans
В ролях: Крис Эванс, Элис Ив, Скотт Эванс, Эмма Фитцпатрик, Мария Брэймэн, Джон Каллам, Марк Кассен, Бет Катехис, Дэниэл Спинк, Кевин Керолан, Элайджа Морлэнд и другие
Описание: Мужчина и женщина, ранее не знавшие друг друга, проводят ночь вместе. Противоречия, испытываемые героями в жизни, становятся основой для исследования друг друга и самих себя.
II Сэмпл II IMDB II
Доп. информация:
За русские субтитры спасибо Maxj
Цитата:
Перевод: Pandem
Редактура: Polmila
Синхронизация: bozxphd
Тип релиза: BDRip 720p
Контейнер: MKV
Видео: AVC / 1280x666 / 1.92:1/ 23.976fps / Bit rate 8000Kbps / High@L4.1
Аудио: AC3 / 48.0 KHz / 6ch. / 640kbps / eng
Формат субтитров: softsub (SRT)

MediaInfo

Общее
Уникальный идентификатор : 209108450374826210259625883451090262096 (0x9D50D2973B972254922F0382A873D850)
Полное имя : H:\!_Torrent\Before.We.Go.2014.BDRip.720p_by_vedigo.mkv
Формат : Matroska
Версия формата : Version 4 / Version 2
Размер файла : 5,75 Гбайт
Продолжительность : 1 ч. 35 м.
Общий поток : 8631 Кбит/сек
Название фильма : Before.We.Go.2014.BDRip.720p_by_vedigo
Дата кодирования : UTC 2015-11-08 05:35:50
Программа кодирования : mkvmerge v8.5.2 ('Crosses') 64bit
Библиотека кодирования : libebml v1.3.3 + libmatroska v1.4.4
DURATION : 01:27:37.110000000
NUMBER_OF_FRAMES : 1584
NUMBER_OF_BYTES : 45825
_STATISTICS_WRITING_APP : mkvmerge v8.5.2 ('Crosses') 64bit
_STATISTICS_WRITING_DATE_UTC : 2015-11-08 05:35:50
_STATISTICS_TAGS : BPS DURATION NUMBER_OF_FRAMES NUMBER_OF_BYTES
Видео
Идентификатор : 1
Формат : AVC
Формат/Информация : Advanced Video Codec
Профиль формата : High@L4.1
Параметр CABAC формата : Да
Параметр ReFrames формата : 9 кадров
Идентификатор кодека : V_MPEG4/ISO/AVC
Продолжительность : 1 ч. 35 м.
Битрейт : 8000 Кбит/сек
Ширина : 1280 пикселей
Высота : 666 пикселей
Соотношение сторон : 1,922
Режим частоты кадров : Постоянный
Частота кадров : 23,976 кадра/сек
Цветовое пространство : YUV
Субдискретизация насыщенности : 4:2:0
Битовая глубина : 8 бит
Тип развёртки : Прогрессивная
Бит/(Пиксели*Кадры) : 0.391
Размер потока : 5,21 Гбайт (91%)
Заголовок : Before.We.Go.2014.BDRip.720p_by_vedigo
Библиотека кодирования : x264 core 148 r2638 7599210
Настройки программы : cabac=1 / ref=9 / deblock=1:-3:-3 / analyse=0x3:0x133 / me=umh / subme=11 / psy=0 / mixed_ref=1 / me_range=48 / chroma_me=1 / trellis=2 / 8x8dct=1 / cqm=0 / deadzone=21,11 / fast_pskip=0 / chroma_qp_offset=0 / threads=12 / lookahead_threads=3 / sliced_threads=0 / nr=0 / decimate=1 / interlaced=0 / bluray_compat=0 / constrained_intra=0 / bframes=10 / b_pyramid=2 / b_adapt=2 / b_bias=0 / direct=3 / weightb=1 / open_gop=0 / weightp=2 / keyint=250 / keyint_min=23 / scenecut=40 / intra_refresh=0 / rc_lookahead=40 / rc=2pass / mbtree=0 / bitrate=8000 / ratetol=1.0 / qcomp=0.60 / qpmin=0 / qpmax=69 / qpstep=4 / cplxblur=20.0 / qblur=0.5 / vbv_maxrate=50000 / vbv_bufsize=62500 / nal_hrd=none / filler=0 / ip_ratio=1.40 / pb_ratio=1.30 / aq=1:0.90
Язык : English
Default : Да
Forced : Нет
DURATION : 01:35:24.219000000
NUMBER_OF_FRAMES : 137244
NUMBER_OF_BYTES : 5716005670
_STATISTICS_WRITING_APP : mkvmerge v8.5.2 ('Crosses') 64bit
_STATISTICS_WRITING_DATE_UTC : 2015-11-08 05:35:50
_STATISTICS_TAGS : BPS DURATION NUMBER_OF_FRAMES NUMBER_OF_BYTES
Аудио
Идентификатор : 2
Формат : AC-3
Формат/Информация : Audio Coding 3
Расширение режима : CM (complete main)
Параметр Endianness формата : Big
Идентификатор кодека : A_AC3
Продолжительность : 1 ч. 35 м.
Вид битрейта : Постоянный
Битрейт : 640 Кбит/сек
Каналы : 6 каналов
Расположение каналов : Front: L C R, Side: L R, LFE
Частота : 48,0 КГц
Метод сжатия : С потерями
Размер потока : 437 Мбайт (7%)
Заголовок : original
Язык : English
Default : Да
Forced : Нет
Текст #1
Идентификатор : 3
Формат : UTF-8
Идентификатор кодека : S_TEXT/UTF8
Идентификатор кодека/Информация : UTF-8 Plain Text
Заголовок : subtitle rus
Язык : Russian
Default : Да
Forced : Нет
Текст #2
Идентификатор : 4
Формат : UTF-8
Идентификатор кодека : S_TEXT/UTF8
Идентификатор кодека/Информация : UTF-8 Plain Text
Заголовок : subtitle eng @ BD
Язык : English
Default : Нет
Forced : Нет
Текст #3
Идентификатор : 5
Формат : UTF-8
Идентификатор кодека : S_TEXT/UTF8
Идентификатор кодека/Информация : UTF-8 Plain Text
Заголовок : subtitle eng @ WEB-DL
Язык : English
Default : Нет
Forced : Нет
Меню
00:00:00.000 : en:00:00:00.000
00:04:17.548 : en:00:04:17.548
00:09:50.505 : en:00:09:50.505
00:15:49.572 : en:00:15:49.572
00:19:56.903 : en:00:19:56.903
00:25:43.375 : en:00:25:43.375
00:32:26.568 : en:00:32:26.568
00:38:29.347 : en:00:38:29.347
00:43:42.286 : en:00:43:42.286
00:48:25.485 : en:00:48:25.485
00:55:04.009 : en:00:55:04.009
01:04:37.414 : en:01:04:37.414
01:11:13.269 : en:01:11:13.269
01:18:03.720 : en:01:18:03.720
01:24:07.583 : en:01:24:07.583
01:29:14.097 : en:01:29:14.097

Скриншоты


Сравнение с мсходником





x264 info

x264 [info]: frame I:732 Avg QP:13.19 size:132306
x264 [info]: frame P:26187 Avg QP:15.19 size: 64424
x264 [info]: frame B:110325 Avg QP:16.85 size: 35641
x264 [info]: consecutive B-frames: 1.2% 1.2% 5.9% 5.8% 15.0% 61.8% 4.1% 0.8% 1.0% 1.4% 1.8%
x264 [info]: mb I I16..4: 36.6% 40.0% 23.4%
x264 [info]: mb P I16..4: 24.9% 20.8% 12.7% P16..4: 15.7% 14.5% 5.6% 0.5% 0.0% skip: 5.2%
x264 [info]: mb B I16..4: 14.9% 6.8% 3.6% B16..8: 20.5% 20.8% 4.6% direct:11.6% skip:17.2% L0:42.6% L1:32.2% BI:25.2%
x264 [info]: 8x8 transform intra:30.1% inter:38.0%
x264 [info]: direct mvs spatial:99.4% temporal:0.6%
x264 [info]: coded y,uvDC,uvAC intra: 94.6% 79.0% 52.1% inter: 52.8% 27.6% 3.1%
x264 [info]: i16 v,h,dc,p: 5% 4% 56% 35%
x264 [info]: i8 v,h,dc,ddl,ddr,vr,hd,vl,hu: 17% 12% 32% 5% 6% 7% 6% 7% 8%
x264 [info]: i4 v,h,dc,ddl,ddr,vr,hd,vl,hu: 16% 11% 33% 6% 8% 7% 6% 6% 6%
x264 [info]: i8c dc,h,v,p: 35% 27% 20% 18%
x264 [info]: Weighted P-Frames: Y:1.8% UV:0.3%
x264 [info]: ref P L0: 33.2% 8.9% 25.4% 7.3% 9.2% 4.3% 5.6% 2.4% 3.4% 0.2% 0.0%
x264 [info]: ref B L0: 71.9% 13.4% 5.5% 3.4% 2.3% 2.1% 1.0% 0.4%
x264 [info]: ref B L1: 93.9% 6.1%
x264 [info]: kb/s:7988.52
Показать сообщения:    

Текущее время: 21-Сен 16:52

Часовой пояс: UTC - 1


Вы не можете начинать темы
Вы не можете отвечать на сообщения
Вы не можете редактировать свои сообщения
Вы не можете удалять свои сообщения
Вы не можете голосовать в опросах
Вы не можете прикреплять файлы к сообщениям
Вы не можете скачивать файлы

!ВНИМАНИЕ!
Сайт не предоставляет электронные версии произведений, а занимается лишь коллекционированием и каталогизацией ссылок, присылаемых и публикуемых на форуме нашими читателями. Если вы являетесь правообладателем какого-либо представленного материала и не желаете, чтобы ссылка на него находилась в нашем каталоге, свяжитесь с нами, и мы незамедлительно удалим ее. Файлы для обмена на трекере предоставлены пользователями сайта, и администрация не несет ответственности за их содержание. Просьба не заливать файлы, защищенные авторскими правами, а также файлы нелегального содержания!