Важное объявление!
У Нас Все раздачи мультитрекерные, при нуле пиров в релизах, можете смело вставать на закачку!
 
Автор Сообщение

HUNTER

Стаж:
4 года 8 месяцев
Сообщений:
62060

Репутация: 101

[+] [-]
Вне форума [Профиль] [ЛС]

Прежде чем мы расстанемся / Before We Go
Страна: США
Студия: G4 Productions, Nutmeg Film Productions, Wonderland Sound and Vision
Жанр: драма, мелодрама
Год выпуска: 2014
Продолжительность: 01:36:23
Перевод: Субтитры
Cубтитры: русские, английске
Оригинальная аудиодорожка: английский
Режиссер: Крис Эванс / Chris Evans
В ролях: Крис Эванс, Элис Ив, Скотт Эванс, Эмма Фитцпатрик, Мария Брэймэн, Джон Каллам, Марк Кассен, Бет Катехис, Дэниэл Спинк, Кевин Керолан, Элайджа Морлэнд и другие
Описание: Мужчина и женщина, ранее не знавшие друг друга, проводят ночь вместе. Противоречия, испытываемые героями в жизни, становятся основой для исследования друг друга и самих себя.
II Сэмпл II IMDB II
Доп. информация:
За русские субтитры спасибо Maxj
Цитата:
Перевод: Pandem
Редактура: Polmila
Синхронизация: bozxphd
Тип релиза: BDRip 1080p
Контейнер: MKV
Видео: AVC / 1920x998 / 1.92:1 / 23.976fps / Bit rate / 14000Kbps / High@L4.1
Аудио: DTS / 48.0 KHz / 6ch. / 1509kbps / eng
Формат субтитров: softsub (SRT)

MediaInfo

Общее
Уникальный идентификатор : 245037330717540002964968892297666549431 (0xB85879285D4D90659C710D0541D6D6B7)
Полное имя : H:\!_Torrent\Before.We.Go.2014.BDRip.1080p_by_vedigo.mkv
Формат : Matroska
Версия формата : Version 4 / Version 2
Размер файла : 10,3 Гбайт
Продолжительность : 1 ч. 35 м.
Общий поток : 15,5 Мбит/сек
Название фильма : Before.We.Go.2014.BDRip.1080p_by_vedigo
Дата кодирования : UTC 2015-11-07 12:55:45
Программа кодирования : mkvmerge v8.5.2 ('Crosses') 64bit
Библиотека кодирования : libebml v1.3.3 + libmatroska v1.4.4
DURATION : 01:35:23.222000000
NUMBER_OF_FRAMES : 536552
NUMBER_OF_BYTES : 1079542624
_STATISTICS_WRITING_APP : mkvmerge v8.5.2 ('Crosses') 64bit
_STATISTICS_WRITING_DATE_UTC : 2015-11-07 12:55:45
_STATISTICS_TAGS : BPS DURATION NUMBER_OF_FRAMES NUMBER_OF_BYTES
Видео
Идентификатор : 1
Формат : AVC
Формат/Информация : Advanced Video Codec
Профиль формата : High@L4.1
Параметр CABAC формата : Да
Параметр ReFrames формата : 4 кадра
Идентификатор кодека : V_MPEG4/ISO/AVC
Продолжительность : 1 ч. 35 м.
Битрейт : 14,0 Мбит/сек
Ширина : 1920 пикселей
Высота : 998 пикселей
Соотношение сторон : 1,924
Режим частоты кадров : Постоянный
Частота кадров : 23,976 кадра/сек
Цветовое пространство : YUV
Субдискретизация насыщенности : 4:2:0
Битовая глубина : 8 бит
Тип развёртки : Прогрессивная
Бит/(Пиксели*Кадры) : 0.305
Размер потока : 9,12 Гбайт (88%)
Заголовок : Before.We.Go.2014.BDRip.1080p_by_vedigo
Библиотека кодирования : x264 core 148 r2638 7599210
Настройки программы : cabac=1 / ref=4 / deblock=1:-3:-3 / analyse=0x3:0x133 / me=umh / subme=11 / psy=0 / mixed_ref=1 / me_range=64 / chroma_me=1 / trellis=2 / 8x8dct=1 / cqm=0 / deadzone=21,11 / fast_pskip=0 / chroma_qp_offset=0 / threads=12 / lookahead_threads=2 / sliced_threads=0 / nr=0 / decimate=1 / interlaced=0 / bluray_compat=0 / constrained_intra=0 / bframes=8 / b_pyramid=2 / b_adapt=2 / b_bias=0 / direct=3 / weightb=1 / open_gop=0 / weightp=2 / keyint=250 / keyint_min=23 / scenecut=40 / intra_refresh=0 / rc_lookahead=40 / rc=2pass / mbtree=0 / bitrate=14000 / ratetol=1.0 / qcomp=0.60 / qpmin=0 / qpmax=69 / qpstep=4 / cplxblur=20.0 / qblur=0.5 / vbv_maxrate=50000 / vbv_bufsize=62500 / nal_hrd=none / filler=0 / ip_ratio=1.40 / pb_ratio=1.30 / aq=1:0.90
Default : Да
Forced : Нет
DURATION : 01:35:24.219000000
NUMBER_OF_FRAMES : 137244
NUMBER_OF_BYTES : 10010208059
_STATISTICS_WRITING_APP : mkvmerge v8.5.2 ('Crosses') 64bit
_STATISTICS_WRITING_DATE_UTC : 2015-11-07 12:55:45
_STATISTICS_TAGS : BPS DURATION NUMBER_OF_FRAMES NUMBER_OF_BYTES
Аудио
Идентификатор : 2
Формат : DTS
Формат/Информация : Digital Theater Systems
Режим : 16
Параметр Endianness формата : Big
Идентификатор кодека : A_DTS
Продолжительность : 1 ч. 35 м.
Вид битрейта : Постоянный
Битрейт : 1509 Кбит/сек
Каналы : 6 каналов
Расположение каналов : Front: L C R, Side: L R, LFE
Частота : 48,0 КГц
Битовая глубина : 24 бит
Метод сжатия : С потерями
Размер потока : 1,01 Гбайт (10%)
Заголовок : original
Язык : English
Default : Да
Forced : Нет
Текст #1
Идентификатор : 3
Формат : UTF-8
Идентификатор кодека : S_TEXT/UTF8
Идентификатор кодека/Информация : UTF-8 Plain Text
Заголовок : subtitle rus
Язык : Russian
Default : Да
Forced : Нет
Текст #2
Идентификатор : 4
Формат : UTF-8
Идентификатор кодека : S_TEXT/UTF8
Идентификатор кодека/Информация : UTF-8 Plain Text
Заголовок : subtitle eng @ BD
Язык : English
Default : Нет
Forced : Нет
Текст #3
Идентификатор : 5
Формат : UTF-8
Идентификатор кодека : S_TEXT/UTF8
Идентификатор кодека/Информация : UTF-8 Plain Text
Заголовок : subtitle eng @ WEB-DL
Язык : English
Default : Нет
Forced : Нет
Меню
00:00:00.000 : en:00:00:00.000
00:04:17.548 : en:00:04:17.548
00:09:50.505 : en:00:09:50.505
00:15:49.572 : en:00:15:49.572
00:19:56.903 : en:00:19:56.903
00:25:43.375 : en:00:25:43.375
00:32:26.568 : en:00:32:26.568
00:38:29.347 : en:00:38:29.347
00:43:42.286 : en:00:43:42.286
00:48:25.485 : en:00:48:25.485
00:55:04.009 : en:00:55:04.009
01:04:37.414 : en:01:04:37.414
01:11:13.269 : en:01:11:13.269
01:18:03.720 : en:01:18:03.720
01:24:07.583 : en:01:24:07.583
01:29:14.097 : en:01:29:14.097

Скриншоты


Сравнение с исходником





x264 info

x264 [info]: frame I:655 Avg QP:14.71 size:187268
x264 [info]: frame P:27167 Avg QP:16.53 size:103170
x264 [info]: frame B:109422 Avg QP:18.64 size: 64747
x264 [info]: consecutive B-frames: 1.2% 1.3% 7.2% 9.2% 13.3% 60.9% 3.9% 1.3% 1.8%
x264 [info]: mb I I16..4: 25.7% 59.6% 14.6%
x264 [info]: mb P I16..4: 24.3% 37.9% 8.7% P16..4: 11.9% 9.0% 1.5% 0.1% 0.0% skip: 6.6%
x264 [info]: mb B I16..4: 15.5% 16.2% 2.0% B16..8: 19.7% 16.1% 2.6% direct:11.4% skip:16.6% L0:41.5% L1:39.3% BI:19.1%
x264 [info]: 8x8 transform intra:50.0% inter:61.4%
x264 [info]: direct mvs spatial:99.6% temporal:0.4%
x264 [info]: coded y,uvDC,uvAC intra: 87.9% 77.9% 40.5% inter: 48.0% 31.2% 2.0%
x264 [info]: i16 v,h,dc,p: 7% 7% 52% 34%
x264 [info]: i8 v,h,dc,ddl,ddr,vr,hd,vl,hu: 15% 11% 36% 6% 6% 6% 6% 7% 8%
x264 [info]: i4 v,h,dc,ddl,ddr,vr,hd,vl,hu: 20% 13% 34% 5% 7% 6% 5% 4% 5%
x264 [info]: i8c dc,h,v,p: 30% 31% 22% 17%
x264 [info]: Weighted P-Frames: Y:1.2% UV:0.3%
x264 [info]: ref P L0: 43.9% 9.2% 35.5% 10.6% 0.8% 0.0%
x264 [info]: ref B L0: 86.9% 11.2% 1.9%
x264 [info]: ref B L1: 92.6% 7.4%
x264 [info]: kb/s:13989.97

_________________
Показать сообщения:    

Текущее время: Сегодня 23:04

Часовой пояс: GMT



Вы не можете начинать темы
Вы не можете отвечать на сообщения
Вы не можете редактировать свои сообщения
Вы не можете удалять свои сообщения
Вы не можете голосовать в опросах
Вы не можете прикреплять файлы к сообщениям
Вы не можете скачивать файлы
Наши партнеры: интернет магазин Ивановского трикотажа textilla.ru