Праздник монстров / A Monsterous Holiday (Гордон Крам / Gordon Crum) [2013, мультфильм, семейный, DVB] DUB (Кириллица) :: Ивановский Торрент трекер
Важное объявление!
У Нас Все раздачи мультитрекерные, при нуле пиров в релизах, можете смело вставать на закачку!
Статистика раздачи
Размер:     |    Зарегистрирован:     |    Скачан:     |   
Нет
 
     
 
 
Автор Сообщение

HUNTER

Стаж:
4 года 11 месяцев
Сообщений:
66112

Репутация: 101

[+] [-]
Вне форума [Профиль] [ЛС]

Праздник монстров / A Monsterous Holiday-
Страна: США
Жанр: мультфильм, семейный
Продолжительность: 00:44:52
Год выпуска: 2013
Перевод : Профессиональный (дублированный) "Кириллица"
Русские субтитры: нет-Режиссёр: Гордон Крам / Gordon Crum
Роли дублировали: Антон Колесников, Прохор Чеховской, Сергей Бурунов, Денис Некрасов, Наталья Терешкова, Людмила Ильина- | Релиз: -Описание: Мальчик Энди – настоящий горе-изобретатель, который мечтает занять первое место на научной ярмарке. Но его отец не разделяет страсти сына к экспериментам.-Семпл: http://sendfile.su/1041254-Качество: DVB (Канал "Дисней")
Формат: MPG
Видео: 720x576 (4:3) @ 768x576, 25.000 fps, MPEG-2 Video, ~1963 Kbps, 0.189 bits/pixel
Аудио: Русский, 48.0 KHz, AC3, 2 ch, 192 Kbps - Дубляж | "Кириллица"
Субтитры: нет

MediaInfo

GeneralComplete name : A Monsterous Holiday 2013 Disney DUB Kirillitsa.mpgFormat : MPEG-PSFile size : 706 MiBDuration : 44mn 52sOverall bit rate mode : VariableOverall bit rate : 2 199 Kbps
VideoID : 224 (0xE0)Format : MPEG VideoFormat version : Version 2Format profile : Main@MainFormat settings, BVOP : YesFormat settings, Matrix : CustomFormat settings, GOP : VariableFormat settings, picture structure : FrameDuration : 44mn 52sBit rate mode : VariableBit rate : 1 963 KbpsMaximum bit rate : 15.0 MbpsWidth : 720 pixelsHeight : 576 pixelsDisplay aspect ratio : 4:3Frame rate : 25.000 fpsStandard : PALColor space : YUVChroma subsampling : 4:2:0Bit depth : 8 bitsScan type : InterlacedScan order : Top Field FirstCompression mode : LossyBits/(Pixel*Frame) : 0.189Time code of first frame : 00:00:00:00Time code source : Group of pictures headerStream size : 630 MiB (89%)
AudioID : 192 (0xC0)Format : MPEG AudioFormat version : Version 1Format profile : Layer 2Duration : 44mn 52sBit rate mode : ConstantBit rate : 192 KbpsChannel(s) : 2 channelsSampling rate : 48.0 KHzCompression mode : LossyStream size : 61.6 MiB (9%)

Скриншоты


_________________
Показать сообщения:    

Текущее время: Сегодня 19:31

Часовой пояс: GMT



Вы не можете начинать темы
Вы не можете отвечать на сообщения
Вы не можете редактировать свои сообщения
Вы не можете удалять свои сообщения
Вы не можете голосовать в опросах
Вы не можете прикреплять файлы к сообщениям
Вы не можете скачивать файлы