Ивановский Торрент трекер
Яндекс.Погода
 

[Цитировать]
HUNTER

Правдивое кино / Cinema Verite
Страна: США
Студия: HBO Films
Жанр: Драма
Год выпуска: 2011
Продолжительность: 01:30:00
Перевод: Профессиональный (многоголосый закадровый)
Cубтитры: русские
Оригинальная аудиодорожка: английский
Режиссер: Шари Спрингер Берман / Shari Springer Berman, Роберт Пульчини / Robert Pulcini
В ролях: Томас Деккер (Lance Loud), Дайан Лэйн (Pat Loud), Тим Роббинс (Bill Loud), Кейтлин Девер (Michelle Loud), Джеймс Гандольфини (Craig Gilbert), Джонни Симмонс (Kevin Loud), Патрик Фьюджит (Alan Raymond), Кэтлин Куинлен (Mary), Мэтью О’Лири (Cameron), Эмилио Ривера (Watchman)
Описание: Закулисная история о первой американской семье, ставшей героями ТВ-реалити шоу.
Сэмпл: http://multi-up.com/1014760
Тип релиза: HDTV 1080i
Контейнер: TS
Видео: AVC, 1920х1080, 16:9, 6691 Кбит/сек, 25 fps
Аудио 1: (русский) MPEG Audio, 192 Кбит/сек, 48 КГц, 2 канала
Аудио 2: (английский) MPEG Audio, 192 Кбит/сек, 48 КГц, 2 канала
Аудио 3: (русский) AC3, 384 Кбит/сек, 48 КГц, 6 канала
Формат субтитров: Teletext

MediaInfo

Общее
Идентификатор : 16 (0x10)
Полное имя : E:\Downloads\Cinema Verite_HD.ts
Формат : MPEG-TS
Размер файла : 4,74 Гбайт
Продолжительность : 1 ч. 26 м.
Режим общего битрейта : Переменный
Общий поток : 7856 Кбит/сек
Видео
Идентификатор : 1812 (0x714)
Идентификатор меню : 812 (0x32C)
Формат : AVC
Формат/Информация : Advanced Video Codec
Профиль формата : High@L4.0
Параметр CABAC формата : Да
Параметр ReFrames формата : 4 кадра
Идентификатор кодека : 27
Продолжительность : 1 ч. 26 м.
Битрейт : 6691 Кбит/сек
Ширина : 1920 пикселей
Высота : 1080 пикселей
Соотношение сторон : 16:9
Частота кадров : 25,000 кадров/сек
Стандарт вещания : PAL
Цветовое пространство : YUV
Субдискретизация насыщенности : 4:2:0
Битовая глубина : 8 бит
Тип развёртки : MBAFF
Бит/(Пиксели*Кадры) : 0.129
Размер потока : 4,04 Гбайт (85%)
Основные цвета : BT.709
Характеристики трансфера : BT.709
Коэффициенты матрицы : BT.709
Аудио #1
Идентификатор : 2812 (0xAFC)
Идентификатор меню : 812 (0x32C)
Формат : MPEG Audio
Версия формата : Version 1
Профиль формата : Layer 2
Идентификатор кодека : 4
Продолжительность : 1 ч. 26 м.
Вид битрейта : Постоянный
Битрейт : 192 Кбит/сек
Каналы : 2 канала
Частота : 48,0 КГц
Метод сжатия : С потерями
Задержка видео : 177 мс.
Размер потока : 119 Мбайт (2%)
Язык : std
Язык, дополнительно : Clean effects
Аудио #2
Идентификатор : 3812 (0xEE4)
Идентификатор меню : 812 (0x32C)
Формат : MPEG Audio
Версия формата : Version 1
Профиль формата : Layer 2
Идентификатор кодека : 4
Продолжительность : 1 ч. 26 м.
Вид битрейта : Постоянный
Битрейт : 192 Кбит/сек
Каналы : 2 канала
Частота : 48,0 КГц
Метод сжатия : С потерями
Задержка видео : 177 мс.
Размер потока : 119 Мбайт (2%)
Язык : English
Язык, дополнительно : Clean effects
Аудио #3
Идентификатор : 4812 (0x12CC)
Идентификатор меню : 812 (0x32C)
Формат : AC-3
Формат/Информация : Audio Coding 3
Расширение режима : CM (complete main)
Параметр Endianness формата : Big
Идентификатор кодека : 6
Продолжительность : 1 ч. 26 м.
Вид битрейта : Постоянный
Битрейт : 384 Кбит/сек
Каналы : 6 каналов
Расположение каналов : Front: L C R, Side: L R, LFE
Частота : 48,0 КГц
Битовая глубина : 16 бит
Метод сжатия : С потерями
Задержка видео : 96 мс.
Размер потока : 237 Мбайт (5%)
Язык : std
Язык, дополнительно : Clean effects
Текст
Идентификатор : 63 (0x3F)-100
Идентификатор меню : 812 (0x32C)
Формат : Teletext
Меню
Идентификатор : 812 (0x32C)
Идентификатор меню : 812 (0x32C)
Продолжительность : 1 ч. 26 м.
Список : 1812 (0x714) (AVC) / 2812 (0xAFC) (MPEG Audio, std) / 3812 (0xEE4) (MPEG Audio, English) / 4812 (0x12CC) (AC-3, std) / 63 (0x3F) ()
Язык : / std / English / std

Скриншоты





Показать сообщения:    

Текущее время: 16-Дек 05:29

Часовой пояс: UTC ± 0


Вы не можете начинать темы
Вы не можете отвечать на сообщения
Вы не можете редактировать свои сообщения
Вы не можете удалять свои сообщения
Вы не можете голосовать в опросах
Вы не можете прикреплять файлы к сообщениям
Вы не можете скачивать файлы

!ВНИМАНИЕ!
Сайт не предоставляет электронные версии произведений, а занимается лишь коллекционированием и каталогизацией ссылок, присылаемых и публикуемых на форуме нашими читателями. Если вы являетесь правообладателем какого-либо представленного материала и не желаете, чтобы ссылка на него находилась в нашем каталоге, свяжитесь с нами, и мы незамедлительно удалим ее. Файлы для обмена на трекере предоставлены пользователями сайта, и администрация не несет ответственности за их содержание. Просьба не заливать файлы, защищенные авторскими правами, а также файлы нелегального содержания!