Важное объявление!
У Нас Все раздачи мультитрекерные, при нуле пиров в релизах, можете смело вставать на закачку!
 
Автор Сообщение

HUNTER

Стаж:
4 года 8 месяцев
Сообщений:
62091

Репутация: 101

[+] [-]
Вне форума [Профиль] [ЛС]

По методу Харма / In Harm's Way
Страна: США
Жанр: драма, военный
Год выпуска: 1965
Продолжительность: 02:47:30
Перевод: Профессиональный (многоголосый закадровый) DVD-Magic
Cубтитры: английские
Оригинальная аудиодорожка: английский
Режиссер: Отто Преминджер / Otto Preminger
В ролях: Джон Уэйн, Кирк Дуглас, Патриция Нил, Том Трайон, Пола Прентисс, Брендон Де Уайлд, Джилл Хаворт, Дэна Эндрюс, Стэнли Холлоуэй, Бёрджесс Мередит
Описание: 1941 год, нападение на военно-морскую базу Перл Харбор японской авиацией явилось началом боевых операций американского флота против японских кораблей в Тихом океане.
Капитан Рок Торри, преодолевая интриги и карьеризм сослуживцев, вытаскивая из беды друзей и пытаясь наладить отношения с сыном-офицером, становится контр-адмиралом и главнокомандующим рискованной, но необходимой операции «Небесный крюк», которая своим успехом может изменить весь ход войны.
Рискуя своим небольшим флотом, он вступает в неравный бой с японцами и одерживает победу, но ценой жизни друзей и сына.
Доп. информация:


За дорожку с переводом спасибо palmeiras
Сэмпл: http://sendfile.su/1045080
Тип релиза: WEB-DL 720p
Контейнер: MKV
Видео: AVC, 1280x544, L3.1, 23.976fps, 3957kbps, 0.237bit/pixel
Аудио 1: Russian: AC3, 48000Hz, 6ch, 448kbps
Аудио 2: English: AC3, 48000Hz, 6ch, 384kbps
Формат субтитров: softsub (SRT)

MediaInfo

Общее
Уникальный идентификатор : 247682998055660470923588683095814916679 (0xBA5602A0DD5B9746B581912DC69F4A47)
Полное имя : T:\In Harm's Way (WEB-DL 720p).mkv
Формат : Matroska
Версия формата : Version 4 / Version 2
Размер файла : 5,72 Гбайт
Продолжительность : 2 ч. 47 м.
Общий поток : 4887 Кбит/сек
Дата кодирования : UTC 2014-11-06 09:55:24
Программа кодирования : mkvmerge v6.9.1 ('Blue Panther') 64bit built on Apr 18 2014 18:23:38
Библиотека кодирования : libebml v1.3.0 + libmatroska v1.4.1
Видео
Идентификатор : 1
Формат : AVC
Формат/Информация : Advanced Video Codec
Профиль формата : Main@L3.1
Параметр CABAC формата : Нет
Параметр ReFrames формата : 2 кадра
Идентификатор кодека : V_MPEG4/ISO/AVC
Продолжительность : 2 ч. 47 м.
Битрейт : 3957 Кбит/сек
Ширина : 1280 пикселей
Высота : 544 пикселя
Соотношение сторон : 2,35:1
Режим частоты кадров : Постоянный
Частота кадров : 23,976 кадра/сек
Цветовое пространство : YUV
Субдискретизация насыщенности : 4:2:0
Битовая глубина : 8 бит
Тип развёртки : Прогрессивная
Бит/(Пиксели*Кадры) : 0.237
Размер потока : 4,63 Гбайт (81%)
Язык : English
Default : Да
Forced : Нет
Основные цвета : BT.709
Характеристики трансфера : BT.709
Коэффициенты матрицы : BT.709
Аудио #1
Идентификатор : 2
Формат : AC-3
Формат/Информация : Audio Coding 3
Расширение режима : CM (complete main)
Параметр Endianness формата : Big
Идентификатор кодека : A_AC3
Продолжительность : 2 ч. 47 м.
Вид битрейта : Постоянный
Битрейт : 448 Кбит/сек
Каналы : 6 каналов
Расположение каналов : Front: L C R, Side: L R, LFE
Частота : 48,0 КГц
Битовая глубина : 16 бит
Метод сжатия : С потерями
Размер потока : 537 Мбайт (9%)
Заголовок : DVD-Magic
Язык : Russian
Default : Да
Forced : Нет
Аудио #2
Идентификатор : 3
Формат : AC-3
Формат/Информация : Audio Coding 3
Расширение режима : CM (complete main)
Параметр Endianness формата : Big
Идентификатор кодека : A_AC3
Продолжительность : 2 ч. 47 м.
Вид битрейта : Постоянный
Битрейт : 384 Кбит/сек
Каналы : 6 каналов
Расположение каналов : Front: L C R, Side: L R, LFE
Частота : 48,0 КГц
Битовая глубина : 16 бит
Метод сжатия : С потерями
Размер потока : 460 Мбайт (8%)
Язык : English
Default : Нет
Forced : Нет
Текст
Идентификатор : 4
Формат : UTF-8
Идентификатор кодека : S_TEXT/UTF8
Идентификатор кодека/Информация : UTF-8 Plain Text
Язык : English
Default : Нет
Forced : Нет
Меню
00:00:00.000 : en:One Last Dance
00:05:37.000 : en:The Rock
00:09:38.000 : en:Japanese Attack
00:17:44.000 : en:Twelve Blind Ships
00:29:13.000 : en:Relieved Of Command
00:37:32.000 : en:Less Formal
00:45:34.000 : en:Ensign Torrey
00:49:58.000 : en:Dinner Invitation
01:04:09.000 : en:Ambush
01:08:42.000 : en:Welcome To Toulebonne
01:11:50.000 : en:Missing In Action
01:15:50.000 : en:Skyhook
01:25:24.000 : en:Gavabutu
01:34:27.000 : en:Operation Apple Pie
01:45:30.000 : en:A Blueprint Of Levu Vana
01:48:35.000 : en:Survivor's Leave
01:52:00.000 : en:The Face Of The Tiger
01:57:43.000 : en:Canfil's Report
02:02:41.000 : en:Leave Me With A Baby
02:05:31.000 : en:The End Of Paul And Annalee
02:21:55.000 : en:Stop The Yamato
02:32:04.000 : en:Pala Passage
02:39:38.000 : en:Final Orders
02:44:18.000 : en:Titles

Скриншоты


_________________
Показать сообщения:    

Текущее время: Сегодня 11:53

Часовой пояс: GMT



Вы не можете начинать темы
Вы не можете отвечать на сообщения
Вы не можете редактировать свои сообщения
Вы не можете удалять свои сообщения
Вы не можете голосовать в опросах
Вы не можете прикреплять файлы к сообщениям
Вы не можете скачивать файлы
Наши партнеры: интернет магазин Ивановского трикотажа textilla.ru