Ивановский Торрент трекер
Яндекс.Погода
 

[Цитировать]
HUNTER

Появляется Данстон / Dunston Checks In
-Страна: США
Жанр: Комедия, Семейный
Год выпуска: 1996
Продолжительность: 01:28:17-Перевод 1: Профессиональный (многоголосый, закадровый) ОРТ
Перевод 2: Профессиональный (многоголосый, закадровый) R5 20th Fox
Перевод 3: Профессиональный (многоголосый, закадровый)
Перевод 4: Авторский (одноголосый, закадровый) Володарский
Cубтитры: русские, английские
Оригинальная аудиодорожка: английский-Режиссер: Кен Куэпис / Ken Kwapis-В ролях: Джейсон Александер, Фэй Данауэй, Эрик Ллойд, Руперт Эверетт, Грэм Сэк, Пол Рубенс, Гленн Шэдикс, Нэтан Дэвис-Описание:
Роскошный отель стоит на ушах: готовится праздник. Грандиозный карнавал должен пройти без сучка, без задоринки. Тогда управляющий получит долгожданный отпуск, отель Маджестик - еще больше богатеньких постояльцев, а его корыстная хозяйка - дополнительный барыш. Тут-то и появляется экстравагантный господин с орангутангом Данстоном. Если б знать, что новый постоялец зарабатывает воровством, а симпатяга Данстон умеет очень ловко обшаривать карманы и дамские сумочки. Но до некоторых пор все выглядит вполне пристойно… Пока Данстону вдруг не надоедает работать и он, сбежав от хозяина, не заводит дружбу с детьми управляющего. Вместе они с удовольствием пускают все вокруг себя кувырком, превратив респектабельное заведение в цирковое училище.-Сэмпл: Скачать-Тип релиза: WEB-DL 720p
Контейнер: MKV-Видео: 1280x720 (16:9); 3 897 Kbps; 23.976 fps; 0.176 bpp
Аудио 1: Russian; AC3; 48.0 KHz; 2ch; 192 Kbps MVO ОРТ
Аудио 2: Russian; AC3; 48.0 KHz; 6ch; 448 Kbps MVO R5 20th Fox
Аудио 3: Russian; AC3; 48.0 KHz; 2ch; 192 Kbps MVO
Аудио 4: Russian; AC3; 48.0 KHz; 2ch; 192 Kbps AVO Володарский
Аудио 5: English; AC3; 48.0 KHz; 6ch; 384 Kbps

MediaInfo

Format : Matroska
Format version : Version 4 / Version 2
File size : 3.34 GiB
Duration : 1h 28mn
Overall bit rate : 5 413 Kbps
Movie name : Dunston.Checks.In.1996.720p.WEB-DL.DD5.1.H264-FGT
Encoded date : UTC 2015-09-24 09:07:54
Writing application : mkvmerge v8.1.0 ('Psychedelic Postcard') 64bit
Writing library : libebml v1.3.1 + libmatroska v1.4.2
Attachements : poster.jpg
DURATION : 01:24:44.610000000
NUMBER_OF_FRAMES : 1530
NUMBER_OF_BYTES : 34879
_STATISTICS_WRITING_APP : mkvmerge v8.1.0 ('Psychedelic Postcard') 64bit
_STATISTICS_WRITING_DATE_UTC : 2015-09-24 09:07:54
_STATISTICS_TAGS : BPS DURATION NUMBER_OF_FRAMES NUMBER_OF_BYTES
Video
ID : 1
Format : AVC
Format/Info : Advanced Video Codec
Format profile : High@L3.1
Format settings, CABAC : No
Format settings, ReFrames : 2 frames
Codec ID : V_MPEG4/ISO/AVC
Duration : 1h 28mn
Bit rate : 3 897 Kbps
Width : 1 280 pixels
Height : 720 pixels
Display aspect ratio : 16:9
Frame rate mode : Constant
Frame rate : 23.976 fps
Color space : YUV
Chroma subsampling : 4:2:0
Bit depth : 8 bits
Scan type : Progressive
Bits/(Pixel*Frame) : 0.176
Stream size : 2.40 GiB (72%)
Title : Dunston.Checks.In.1996.720p.WEB-DL.DD5.1.H264-FGT
Language : English
Default : Yes
Forced : No
Color primaries : BT.709
Transfer characteristics : BT.709
Matrix coefficients : BT.709
Audio #1
ID : 2
Format : AC-3
Format/Info : Audio Coding 3
Mode extension : CM (complete main)
Format settings, Endianness : Big
Codec ID : A_AC3
Duration : 1h 28mn
Bit rate mode : Constant
Bit rate : 192 Kbps
Channel(s) : 2 channels
Channel positions : Front: L R
Sampling rate : 48.0 KHz
Bit depth : 16 bits
Compression mode : Lossy
Stream size : 121 MiB (4%)
Title : MVO ОРТ
Language : Russian
Default : Yes
Forced : No
Audio #2
ID : 3
Format : AC-3
Format/Info : Audio Coding 3
Mode extension : CM (complete main)
Format settings, Endianness : Big
Codec ID : A_AC3
Duration : 1h 28mn
Bit rate mode : Constant
Bit rate : 192 Kbps
Channel(s) : 2 channels
Channel positions : Front: L R
Sampling rate : 48.0 KHz
Bit depth : 16 bits
Compression mode : Lossy
Stream size : 121 MiB (4%)
Title : MVO
Language : Russian
Default : No
Forced : No
Audio #3
ID : 4
Format : AC-3
Format/Info : Audio Coding 3
Mode extension : CM (complete main)
Format settings, Endianness : Big
Codec ID : A_AC3
Duration : 1h 28mn
Bit rate mode : Constant
Bit rate : 448 Kbps
Channel(s) : 6 channels
Channel positions : Front: L C R, Side: L R, LFE
Sampling rate : 48.0 KHz
Bit depth : 16 bits
Compression mode : Lossy
Stream size : 283 MiB (8%)
Title : MVO R5
Language : Russian
Default : No
Forced : No
Audio #4
ID : 5
Format : AC-3
Format/Info : Audio Coding 3
Mode extension : CM (complete main)
Format settings, Endianness : Big
Codec ID : A_AC3
Duration : 1h 28mn
Bit rate mode : Constant
Bit rate : 192 Kbps
Channel(s) : 2 channels
Channel positions : Front: L R
Sampling rate : 48.0 KHz
Bit depth : 16 bits
Compression mode : Lossy
Stream size : 121 MiB (4%)
Title : AVO Володарский
Language : Russian
Default : No
Forced : No
Audio #5
ID : 6
Format : AC-3
Format/Info : Audio Coding 3
Mode extension : CM (complete main)
Format settings, Endianness : Big
Codec ID : A_AC3
Duration : 1h 28mn
Bit rate mode : Constant
Bit rate : 384 Kbps
Channel(s) : 6 channels
Channel positions : Front: L C R, Side: L R, LFE
Sampling rate : 48.0 KHz
Bit depth : 16 bits
Compression mode : Lossy
Stream size : 242 MiB (7%)
Title : Dunston.Checks.In.1996.720p.WEB-DL.DD5.1.H264-FGT
Language : English
Default : No
Forced : No
Text #1
ID : 7
Format : UTF-8
Codec ID : S_TEXT/UTF8
Codec ID/Info : UTF-8 Plain Text
Language : Russian
Default : No
Forced : No
Text #2
ID : 8
Format : UTF-8
Codec ID : S_TEXT/UTF8
Codec ID/Info : UTF-8 Plain Text
Title : CC
Language : English
Default : No
Forced : No
Menu
00:00:00.000 : en:Main Titles
00:02:33.000 : en:Mischief at the Majestic
00:06:21.000 : en:The Manager's Kids
00:09:02.000 : en:Rutledge and His Roommate
00:12:57.000 : en:Mrs. Dubrow
00:19:11.000 : en:The Jewel Thieves
00:26:29.000 : en:Monster on the Ledge
00:29:25.000 : en:Dunston's Revolt
00:33:09.000 : en:The Guest Gorilla
00:36:29.000 : en:Kyle's New Friend
00:41:17.000 : en:A Simian in the Spa
00:46:11.000 : en:Apologies
00:48:16.000 : en:Dad Meets Dunston
00:50:56.000 : en:Buck La Farge
00:53:48.000 : en:A Very Smart Animal
00:56:15.000 : en:First Aid
00:58:08.000 : en:The Royal Suite
01:00:16.000 : en:Best Behavior
01:05:11.000 : en:Orangutan on the Run
01:08:35.000 : en:Telling Dad
01:12:49.000 : en:Kitchen Chaos
01:14:55.000 : en:Monkey Business
01:20:19.000 : en:Dunston's New Home
01:23:01.000 : en:End Titles

Скриншоты

0 человек читают эту тему: 0 пользователей, 0 скрытых пользователей, 0 гостей

Показать сообщения:    

Текущее время: 22-Авг 19:44

Часовой пояс: UTC - 1


Вы не можете начинать темы
Вы не можете отвечать на сообщения
Вы не можете редактировать свои сообщения
Вы не можете удалять свои сообщения
Вы не можете голосовать в опросах
Вы не можете прикреплять файлы к сообщениям
Вы не можете скачивать файлы

!ВНИМАНИЕ!
Сайт не предоставляет электронные версии произведений, а занимается лишь коллекционированием и каталогизацией ссылок, присылаемых и публикуемых на форуме нашими читателями. Если вы являетесь правообладателем какого-либо представленного материала и не желаете, чтобы ссылка на него находилась в нашем каталоге, свяжитесь с нами, и мы незамедлительно удалим ее. Файлы для обмена на трекере предоставлены пользователями сайта, и администрация не несет ответственности за их содержание. Просьба не заливать файлы, защищенные авторскими правами, а также файлы нелегального содержания!