Ивановский Торрент трекер
Яндекс.Погода
 

[Цитировать]
HUNTER

Поющие под дождем / Singin' in the Rain
Страна: США
Студия: Metro-Goldwyn-Mayer (MGM)
Жанр: мюзикл, мелодрама, комедия
Год выпуска: 1952
Продолжительность: 01:42:49
Перевод: Профессиональный (многоголосый закадровый) R5
Перевод 2: Профессиональный (многоголосый закадровый) SomeWax
Перевод 3: Профессиональный (многоголосый закадровый) DVD магия
Перевод 4: Авторский (одноголосый закадровый) А. Гаврилов
Cубтитры: русские, английские
Оригинальная аудиодорожка: английский
Режиссер: Стенли Донен, Джин Келли / Stanley Donen, Gene Kelly
В ролях: Джин Келли, Дональд О’Коннор, Дебби Рейнолдс, Джин Хэйген, Миллард Митчелл, Сид Черисс, Дуглас Фоули, Рита Морено, Доун Аддамс, Джон Олбрайт
Описание: Основа этого легендарного фильма — дюжина старых песен, написанных для различных бродвейских шоу. Дон Локвуд — популярная звезда немого кино вспоминает о том, как он пришел к славе… но вдруг счастье покидает его — наступила эра звукового кино. Нужно осваивать новые горизонты.
Сэмпл: http://multi-up.com/1051826
Тип релиза: BDRip 1080p
Контейнер: MKV
Видео: MPEG4 Video (H264) 1480x1080 23.976fps 16.8 Mbps
Аудио: Russian AC-3 / 6 ch / 48.0 KHz / 448 Kbps / MVO R5
Аудио 2: Russian AC-3 / 2 ch / 48.0 KHz / 192 Kbps / MVO SomeWax
Аудио 3: Russian AC-3 / 6 ch / 48.0 KHz / 1 509 Kbps / MVO DVD магия
Аудио 4: Russian AC-3 / 6 ch / 48.0 KHz / 1 509 Kbps / AVO Гаврилов
Аудио 5: English DTS / 6 ch / 48.0 KHz / 1 509 Kbps / Original
Аудио 6: English AC-3 / 1 ch / 48.0 KHz / 192 Kbps / Commentary
Формат субтитров: softsub (SRT)

MediaInfo

General
Unique ID : 228260085587303017128883338413930274284 (0xABB94B1BE027D562A469DBABBC655DEC)
Complete name : D:\Singin.In.The.Rain.1952.BDRip.1080p.mkv
Format : Matroska
Format version : Version 4 / Version 2
File size : 15.9 GiB
Duration : 1h 42mn
Overall bit rate : 22.2 Mbps
Encoded date : UTC 2015-06-03 07:59:19
Writing application : mkvmerge v7.4.0 ('Circles') 64bit built on Dec 12 2014 12:19:56
Writing library : libebml v1.3.0 + libmatroska v1.4.1
_STATISTICS_WRITING_APP : mkvmerge v7.4.0 ('Circles') 64bit built on Dec 12 2014 12:19:56
_STATISTICS_WRITING_DATE_UTC : 2015-06-03 07:59:19
_STATISTICS_TAGS : BPS DURATION NUMBER_OF_FRAMES NUMBER_OF_BYTES
DURATION : 01:42:49.302000000
NUMBER_OF_FRAMES : 578372
NUMBER_OF_BYTES : 1163684464
Video
ID : 1
Format : AVC
Format/Info : Advanced Video Codec
Format profile : High@L4.1
Format settings, CABAC : Yes
Format settings, ReFrames : 4 frames
Codec ID : V_MPEG4/ISO/AVC
Duration : 1h 42mn
Bit rate : 16.8 Mbps
Width : 1 480 pixels
Height : 1 080 pixels
Display aspect ratio : 1.370
Frame rate mode : Constant
Frame rate : 23.976 fps
Color space : YUV
Chroma subsampling : 4:2:0
Bit depth : 8 bits
Scan type : Progressive
Bits/(Pixel*Frame) : 0.438
Stream size : 11.7 GiB (74%)
Title : MPEG-4 x264@High Profile L4.1, 24.000/1.001 fps @ 16800 kbps
Writing library : x264 core 125 r2200+666+31 2d8fe44 tMod+MixAQ [8-bit@4:2:0 X86]
Encoding settings : cabac=1 / ref=4 / deblock=1:-3:-3 / analyse=0x3:0x133 / me=esa / subme=11 / psy=1 / fade_compensate=0.00 / psy_rd=1.00:0.00 / mixed_ref=1 / me_range=32 / chroma_me=1 / trellis=2 / 8x8dct=1 / cqm=0 / deadzone=21,11 / fast_pskip=0 / chroma_qp_offset=-2 / threads=18 / lookahead_threads=3 / sliced_threads=0 / nr=0 / decimate=0 / interlaced=0 / bluray_compat=0 / constrained_intra=0 / fgo=0 / bframes=6 / b_pyramid=2 / b_adapt=2 / b_bias=0 / direct=3 / weightb=1 / open_gop=0 / weightp=2 / keyint=240 / keyint_min=23 / scenecut=40 / intra_refresh=0 / rc_lookahead=60 / rc=2pass / mbtree=0 / bitrate=16800 / ratetol=1.0 / qcomp=0.60 / qpmin=0 / qpmax=69 / qpstep=4 / cplxblur=20.0 / qblur=0.5 / vbv_maxrate=45000 / vbv_bufsize=45000 / nal_hrd=none / ip_ratio=1.40 / pb_ratio=1.30 / aq=1 / aq-strength=0.60 / aq-sensitivity=10.00 / aq-ifactor=1.00 / aq-pfactor=1.00 / aq-bfactor=1.00 / aq2=0
Language : English
Default : Yes
Forced : No
_STATISTICS_WRITING_APP : mkvmerge v7.4.0 ('Circles') 64bit built on Dec 12 2014 12:19:56
_STATISTICS_WRITING_DATE_UTC : 2015-06-03 07:59:19
_STATISTICS_TAGS : BPS DURATION NUMBER_OF_FRAMES NUMBER_OF_BYTES
DURATION : 01:42:48.287000000
NUMBER_OF_FRAMES : 147891
NUMBER_OF_BYTES : 12952141330
Audio #1
ID : 2
Format : AC-3
Format/Info : Audio Coding 3
Mode extension : CM (complete main)
Format settings, Endianness : Big
Codec ID : A_AC3
Duration : 1h 42mn
Bit rate mode : Constant
Bit rate : 448 Kbps
Channel(s) : 6 channels
Channel positions : Front: L C R, Side: L R, LFE
Sampling rate : 48.0 KHz
Bit depth : 16 bits
Compression mode : Lossy
Stream size : 329 MiB (2%)
Title : MVO (R5)
Language : Russian
Default : Yes
Forced : No
Audio #2
ID : 3
Format : AC-3
Format/Info : Audio Coding 3
Mode extension : CM (complete main)
Format settings, Endianness : Big
Codec ID : A_AC3
Duration : 1h 42mn
Bit rate mode : Constant
Bit rate : 192 Kbps
Channel(s) : 2 channels
Channel positions : Front: L R
Sampling rate : 48.0 KHz
Bit depth : 16 bits
Compression mode : Lossy
Stream size : 141 MiB (1%)
Title : MVO (SomeWax)
Language : Russian
Default : No
Forced : No
Audio #3
ID : 4
Format : DTS
Format/Info : Digital Theater Systems
Mode : 16
Format settings, Endianness : Big
Codec ID : A_DTS
Duration : 1h 42mn
Bit rate mode : Constant
Bit rate : 1 509 Kbps
Channel(s) : 6 channels
Channel positions : Front: L C R, Side: L R, LFE
Sampling rate : 48.0 KHz
Bit depth : 16 bits
Compression mode : Lossy
Stream size : 1.08 GiB (7%)
Title : MVO (DVD магия)
Language : Russian
Default : No
Forced : No
Audio #4
ID : 5
Format : DTS
Format/Info : Digital Theater Systems
Mode : 16
Format settings, Endianness : Big
Codec ID : A_DTS
Duration : 1h 42mn
Bit rate mode : Constant
Bit rate : 1 509 Kbps
Channel(s) : 6 channels
Channel positions : Front: L C R, Side: L R, LFE
Sampling rate : 48.0 KHz
Bit depth : 16 bits
Compression mode : Lossy
Stream size : 1.08 GiB (7%)
Title : AVO (А. Гаврилов)
Language : Russian
Default : No
Forced : No
Audio #5
ID : 6
Format : DTS
Format/Info : Digital Theater Systems
Mode : 16
Format settings, Endianness : Big
Codec ID : A_DTS
Duration : 1h 42mn
Bit rate mode : Constant
Bit rate : 1 509 Kbps
Channel(s) : 6 channels
Channel positions : Front: L C R, Side: L R, LFE
Sampling rate : 48.0 KHz
Bit depth : 24 bits
Compression mode : Lossy
Stream size : 1.08 GiB (7%)
Title : English DTS Audio 5.1 @ 1 509 Kbps
Language : English
Default : No
Forced : No
Audio #6
ID : 7
Format : AC-3
Format/Info : Audio Coding 3
Mode extension : CM (complete main)
Format settings, Endianness : Big
Codec ID : A_AC3
Duration : 1h 42mn
Bit rate mode : Constant
Bit rate : 192 Kbps
Channel(s) : 1 channel
Channel positions : Front: C
Sampling rate : 48.0 KHz
Bit depth : 16 bits
Compression mode : Lossy
Stream size : 141 MiB (1%)
Title : English Dolby Digital Audio 1.0 @ 192 kbps Commentary
Language : English
Default : No
Forced : No
Text #1
ID : 8
Format : UTF-8
Codec ID : S_TEXT/UTF8
Codec ID/Info : UTF-8 Plain Text
Language : Russian
Default : No
Forced : No
Text #2
ID : 9
Format : UTF-8
Codec ID : S_TEXT/UTF8
Codec ID/Info : UTF-8 Plain Text
Language : English
Default : No
Forced : No
Menu
00:00:00.000 : en:00:00:00.000
00:01:36.513 : en:00:01:36.513
00:05:21.947 : en:00:05:21.947
00:07:50.220 : en:00:07:50.220
00:11:09.002 : en:00:11:09.002
00:13:00.071 : en:00:13:00.071
00:15:22.964 : en:00:15:22.964
00:19:33.130 : en:00:19:33.130
00:22:34.228 : en:00:22:34.228
00:25:34.158 : en:00:25:34.158
00:27:14.007 : en:00:27:14.007
00:30:55.687 : en:00:30:55.687
00:33:16.578 : en:00:33:16.578
00:35:26.082 : en:00:35:26.082
00:38:45.907 : en:00:38:45.907
00:41:34.742 : en:00:41:34.742
00:46:12.979 : en:00:46:12.979
00:48:02.588 : en:00:48:02.588
00:51:26.125 : en:00:51:26.125
00:53:38.006 : en:00:53:38.006
00:55:21.902 : en:00:55:21.902
00:59:35.697 : en:00:59:35.697
01:01:25.348 : en:01:01:25.348
01:05:13.201 : en:01:05:13.201
01:07:06.356 : en:01:07:06.356
01:11:53.809 : en:01:11:53.809
01:13:27.028 : en:01:13:27.028
01:15:26.605 : en:01:15:26.605
01:17:51.542 : en:01:17:51.542
01:19:41.652 : en:01:19:41.652
01:22:39.288 : en:01:22:39.288
01:24:07.960 : en:01:24:07.960
01:27:19.317 : en:01:27:19.317
01:29:07.551 : en:01:29:07.551
01:34:15.525 : en:01:34:15.525
01:35:52.080 : en:01:35:52.080
01:38:36.410 : en:01:38:36.410
01:41:06.310 : en:01:41:06.310

Скриншоты



Показать сообщения:    

Текущее время: 16-Дек 18:53

Часовой пояс: UTC ± 0


Вы не можете начинать темы
Вы не можете отвечать на сообщения
Вы не можете редактировать свои сообщения
Вы не можете удалять свои сообщения
Вы не можете голосовать в опросах
Вы не можете прикреплять файлы к сообщениям
Вы не можете скачивать файлы

!ВНИМАНИЕ!
Сайт не предоставляет электронные версии произведений, а занимается лишь коллекционированием и каталогизацией ссылок, присылаемых и публикуемых на форуме нашими читателями. Если вы являетесь правообладателем какого-либо представленного материала и не желаете, чтобы ссылка на него находилась в нашем каталоге, свяжитесь с нами, и мы незамедлительно удалим ее. Файлы для обмена на трекере предоставлены пользователями сайта, и администрация не несет ответственности за их содержание. Просьба не заливать файлы, защищенные авторскими правами, а также файлы нелегального содержания!