Ивановский Торрент трекер
Яндекс.Погода
 

[Цитировать]
HUNTER

Похождения императора / The Emperor's New Groove
Страна: США
Жанр: фэнтези, комедия, приключения, семейный
Продолжительность: 01:15:09
Год выпуска: 2000
Перевод: Профессиональный (дублированный)
Русские субтитры: нет
Режиссёр: Марк Диндал / Mark Dindal
Роли дублировали: Алексей Федотов, Сергей Паршин, Елена Комиссаренко, Георгий Траугот, Татьяна Иванова...
Описание: Как и положено царственной особе, император Куско — очень занятой человек. Но последнее его занятие грозит обернуться большими неприятностями: правитель решил построить для себя водный парк, предварительно снеся одну из деревень королевства.
Этот план непременно бы воплотился в жизнь, если бы неприятность не произошла уже с самим императором: недруги превратили его в ламу! Но напасти на этом не закончились: единственным человеком, который мог помочь императору вернуться на трон и в собственное тело, оказывается житель деревни, обреченной на снос. Дорога домой для Куско обещает быть очень долгой.
Релиз:
Семпл: скачать
Качество: HDTV 1080i
Формат: ts
Видео: 1920x1080 (16:9), 25.000 fps, AVC, ~6397 Kbps, 0.123 bits/pixel
Аудио: Russian, 48.0 KHz, AC3, 2 ch, 448 Kbps
Субтитры: нет

Подробные технические данные

GeneralID : 1 (0x1)Complete name : The Emperor's New Groove.2000.HDTV1080i.rutracker.tsFormat : MPEG-TSFile size : 3.78 GiBDuration : 1h 15mnOverall bit rate mode : VariableOverall bit rate : 7 205 Kbps
VideoID : 321 (0x141)Menu ID : 1 (0x1)Format : AVCFormat/Info : Advanced Video CodecFormat profile : High@L4.0Format settings, CABAC : YesFormat settings, ReFrames : 3 framesCodec ID : 27Duration : 1h 15mnBit rate : 6 397 KbpsWidth : 1 920 pixelsHeight : 1 080 pixelsDisplay aspect ratio : 16:9Frame rate : 25.000 fpsStandard : ComponentColor space : YUVChroma subsampling : 4:2:0Bit depth : 8 bitsScan type : InterlacedScan order : Top Field FirstBits/(Pixel*Frame) : 0.123Stream size : 3.36 GiB (89%)Color primaries : BT.709Transfer characteristics : BT.709Matrix coefficients : BT.709
AudioID : 401 (0x191)Menu ID : 1 (0x1)Format : AC-3Format/Info : Audio Coding 3Mode extension : CM (complete main)Format settings, Endianness : BigCodec ID : 6Duration : 1h 15mnBit rate mode : ConstantBit rate : 448 KbpsChannel(s) : 2 channelsChannel positions : Front: L RSampling rate : 48.0 KHzBit depth : 16 bitsCompression mode : LossyStream size : 241 MiB (6%)Language : Russian

Скриншоты

Показать сообщения:    

Текущее время: 18-Окт 01:11

Часовой пояс: UTC - 1


Вы не можете начинать темы
Вы не можете отвечать на сообщения
Вы не можете редактировать свои сообщения
Вы не можете удалять свои сообщения
Вы не можете голосовать в опросах
Вы не можете прикреплять файлы к сообщениям
Вы не можете скачивать файлы

!ВНИМАНИЕ!
Сайт не предоставляет электронные версии произведений, а занимается лишь коллекционированием и каталогизацией ссылок, присылаемых и публикуемых на форуме нашими читателями. Если вы являетесь правообладателем какого-либо представленного материала и не желаете, чтобы ссылка на него находилась в нашем каталоге, свяжитесь с нами, и мы незамедлительно удалим ее. Файлы для обмена на трекере предоставлены пользователями сайта, и администрация не несет ответственности за их содержание. Просьба не заливать файлы, защищенные авторскими правами, а также файлы нелегального содержания!