Важное объявление!
У Нас Все раздачи мультитрекерные, при нуле пиров в релизах, можете смело вставать на закачку!
 
Автор Сообщение

Shalun

Стаж:
4 года 7 месяцев
Сообщений:
802

Репутация: 123

[+] [-]
Вне форума [Профиль] [ЛС]

Похождения императора 2: Приключения Кронка
Kronk's New Groove--
Год выпуска: 2005
Страна: США
Жанр: мультфильм, мюзикл, мелодрама, комедия, семейный...
Продолжительность: 01:15:00
Перевод: Профессиональный (дублированный)
Субтитры: Russian (UTF-8), English (UTF-8)
Режиссер: Сауль Эндрю Блинкофф, Эллиот М. Бур, Робин Стил
Сценарий: Том Роджерс, Майкл Лакер, Майкл ЛаБаш, ...
Продюсер: Джон А. Смит, Питер Деномм
Композитор: Джанин Тесори, Марк Уоттерс
Художник: Колин Стимпсон, Мэри Локателл
Монтаж: Филип Маламут, Артур Д. Нода
В ролях: Патрик Варбертон / Patrick Warburton (Kronk, озвучка), Трейси Уллмен / Tracey Ullman (Ms. Birdwell, озвучка), Эрта Китт / Eartha Kitt (Yzma, озвучка), Дэвид Спейд / David Spade (Kuzco, озвучка), Джон Гудман / John Goodman (Pacha, озвучка), Уэнди Мэлик / Wendie Malick (Chicha, озвучка), Джон Махони / John Mahoney (Papi, озвучка), Джон Фидлер / John Fiedler (Rudy, озвучка)

Описание: Не успели закончиться приключения Пачи и Императора Куско, как симпатяга Кронк, бывший слуга Измы, начал новую счастливую жизнь в качестве шеф-повара в своей собственной закусочной. Однако приключения начинаются с получением лама-граммы, согласно которой, его отец собирается прибыть с визитом. Но, не успев сообразить что происходит, Кронк умудряется состряпать уйму неприятностей, связавшись с хитрой колдуньей Измой, чтобы с помощью волшебства осветить себя ореолом успеха и процветания во время визита Папы.После целого ряда ошибок и грандиозного сырного взрыва в ресторане, проблемы кажутся неразрешимыми. Но с помощью друзей — как новых, так и старых — Кронк узнает, что любые трудности в жизни преодолимы.
Премьера (мир): 29 ноября 2005, ...
Релиз на DVD: 5 октября 2009, «ВС трейд», ...
Рейтинг MPAA: Нет возрастных ограничений


Качество: BDRip.1080р
Формат: MKV
Видео кодек: AVC
Аудио кодеk: AC3
Видео: 1920x1080 (16:9), 23.976 fps, AVC, 7 462 Kbps
Аудио #1: AC3, 448 Kbps, 48.0 KHz, 6 ch (Дубляж)
Аудио #2: AC3, 448 Kbps, 48.0 KHz, 6 ch (English)
--

МедиаИнфо

Лог:
- x264 [info]: frame I:1108 Avg QP:11.54 size:205297
- x264 [info]: frame P:34278 Avg QP:13.54 size: 71156
- x264 [info]: frame B:72372 Avg QP:14.90 size: 21077
General
Complete name : Pohozhdenie.imperatora.2.2005.BDRip.1080p.mkv
Format : Matroska
File size : 4.37 GiB
Duration : 1h 15mn
Overall bit rate : 8 350 Kbps
Encoded date : UTC 2013-06-05 05:40:15
Writing application : mkvmerge v6.1.0 ('Old Devil') built on Mar 2 2013 14:32:37
Writing library : libebml v1.3.0 + libmatroska v1.4.0
Video
ID : 1
Format : AVC
Format/Info : Advanced Video Codec
Format profile : High@L4.1
Format settings, CABAC : Yes
Format settings, ReFrames : 4 frames
Muxing mode : Container profile=Unknown@4.1
Codec ID : V_MPEG4/ISO/AVC
Duration : 1h 15mn
Bit rate : 7 462 Kbps
Width : 1 920 pixels
Height : 1 080 pixels
Display aspect ratio : 16:9
Frame rate : 23.976 fps
Color space : YUV
Chroma subsampling : 4:2:0
Bit depth : 8 bits
Scan type : Progressive
Bits/(Pixel*Frame) : 0.150
Stream size : 3.82 GiB (87%)
Writing library : x264 core 133 r2334 a3ac64b
Encoding settings : cabac=1 / ref=4 / deblock=1:0:0 / analyse=0x3:0x133 / me=umh / subme=10 / psy=1 / psy_rd=0.00:0.00 / mixed_ref=1 / me_range=32 / chroma_me=1 / trellis=2 / 8x8dct=1 / cqm=0 / deadzone=21,11 / fast_pskip=0 / chroma_qp_offset=0 / threads=6 / lookahead_threads=1 / sliced_threads=0 / nr=0 / decimate=1 / interlaced=0 / bluray_compat=0 / constrained_intra=0 / bframes=8 / b_pyramid=2 / b_adapt=2 / b_bias=0 / direct=3 / weightb=1 / open_gop=0 / weightp=2 / keyint=240 / keyint_min=24 / scenecut=40 / intra_refresh=0 / rc_lookahead=50 / rc=2pass / mbtree=0 / bitrate=7462 / ratetol=2.0 / qcomp=1.00 / qpmin=0 / qpmax=51 / qpstep=4 / cplxblur=20.0 / qblur=0.5 / vbv_maxrate=50000 / vbv_bufsize=62500 / nal_hrd=none / ip_ratio=1.40 / pb_ratio=1.30 / aq=1:1.00
Color primaries : BT.709-5, BT.1361, IEC 61966-2-4, SMPTE RP177
Transfer characteristics : BT.709-5, BT.1361
Matrix coefficients : BT.709-5, BT.1361, IEC 61966-2-4 709, SMPTE RP177
Audio #1
ID : 2
Format : AC-3
Format/Info : Audio Coding 3
Mode extension : CM (complete main)
Codec ID : A_AC3
Duration : 1h 15mn
Bit rate mode : Constant
Bit rate : 448 Kbps
Channel(s) : 6 channels
Channel positions : Front: L C R, Side: L R, LFE
Sampling rate : 48.0 KHz
Bit depth : 16 bits
Stream size : 240 MiB (5%)
Title : Дубляж
Language : Russian
Audio #2
ID : 3
Format : AC-3
Format/Info : Audio Coding 3
Mode extension : CM (complete main)
Codec ID : A_AC3
Duration : 1h 15mn
Bit rate mode : Constant
Bit rate : 448 Kbps
Channel(s) : 6 channels
Channel positions : Front: L C R, Side: L R, LFE
Sampling rate : 48.0 KHz
Bit depth : 16 bits
Stream size : 240 MiB (5%)
Text #1
ID : 4
Format : UTF-8
Codec ID : S_TEXT/UTF8
Codec ID/Info : UTF-8 Plain Text
Language : Russian
Text #2
ID : 5
Format : UTF-8
Codec ID : S_TEXT/UTF8
Codec ID/Info : UTF-8 Plain Text
Menu
00:00:00.000 : en:00:00:00.000
00:05:40.798 : en:00:05:40.798
00:07:55.725 : en:00:07:55.725
00:09:27.066 : en:00:09:27.066
00:12:36.005 : en:00:12:36.005
00:17:00.978 : en:00:17:00.978
00:20:21.970 : en:00:20:21.970
00:24:55.410 : en:00:24:55.410
00:28:34.754 : en:00:28:34.754
00:30:59.691 : en:00:30:59.691
00:34:04.709 : en:00:34:04.709
00:39:20.358 : en:00:39:20.358
00:43:41.869 : en:00:43:41.869
00:49:21.833 : en:00:49:21.833
00:55:05.010 : en:00:55:05.010
00:57:28.653 : en:00:57:28.653
01:02:39.005 : en:01:02:39.005
01:02:52.727 : en:01:02:52.727
01:05:37.683 : en:01:05:37.683
01:07:38.054 : en:01:07:38.054
01:14:54.406 : en:01:14:54.406

Скриншоты



_________________
Показать сообщения:    

Текущее время: Сегодня 10:05

Часовой пояс: GMT



Вы не можете начинать темы
Вы не можете отвечать на сообщения
Вы не можете редактировать свои сообщения
Вы не можете удалять свои сообщения
Вы не можете голосовать в опросах
Вы не можете прикреплять файлы к сообщениям
Вы не можете скачивать файлы
Наши партнеры: интернет магазин Ивановского трикотажа textilla.ru