Ивановский Торрент трекер
Яндекс.Погода
 

[Цитировать]
HUNTER


Похождения бравого солдата Швейка
-

  • Год производства: 2011

  • Страна: Украина, Чехия, Россия

  • Жанр: Мультфильм

  • Продолжительность: 01:14:01

  • Перевод: Профессиональный (полное дублирование)

  • Субтитры: Отсутствуют-
  • Режиссер: Ринат Газизов-
  • Описание: Йозефа Швейка, чешского торговца собаками, которого уже дисквалифицировали из армии, как форменного идиота, снова призывают на службу в качестве пушечного мяса во время Первой Мировой войны. Ему докучали бюрократы, полицейские, доктора и духовенство, его «продавали» от одного офицера другому, но добродушный, болтливый и бесхитростный солдат Швейк все же неохотно приближается к линии фронта и, очевидно, к верной смерти.-
  • Качество видео: DVDRip

  • Формат видео: avi

  • Видео кодек: XviD

  • Аудио кодек: mp3

  • Видео: 720x384 (1.88:1), 25 fps, XviD MPEG-4 ~2635 kbps avg, 0.38 bit/pixel

  • Аудио: 48 kHz, MPEG Layer 3, 2 ch, ~128.00 kbps avg-
  • Автор рипа: falco
-

Доп. информация

Скриншоты


MediaInfo

Код: copyText_writeLink('this.parentNode.parentNode.nextSibling.nextSibling');
General
Complete name : D:\Торенты\SVEJK.DVDRip.AVI
Format : AVI
Format/Info : Audio Video Interleave
File size : 1.37 GiB
Duration : 1h 14mn
Overall bit rate : 2 650 Kbps
Video
ID : 0
Format : MPEG-4 Visual
Format profile : Advanced Simple@L5
Format settings, BVOP : 2
Format settings, QPel : No
Format settings, GMC : No warppoints
Format settings, Matrix : Default (MPEG)
Muxing mode : Packed bitstream
Codec ID : XVID
Codec ID/Hint : XviD
Duration : 1h 14mn
Bit rate : 2 509 Kbps
Width : 720 pixels
Height : 384 pixels
Display aspect ratio : 1.85:1
Frame rate : 25.000 fps
Color space : YUV
Chroma subsampling : 4:2:0
Bit depth : 8 bits
Scan type : Progressive
Compression mode : Lossy
Bits/(Pixel*Frame) : 0.363
Stream size : 1.30 GiB (95%)
Title : DVD3VIDEO
Writing library : XviD 64
Audio
ID : 1
Format : MPEG Audio
Format version : Version 1
Format profile : Layer 3
Mode : Joint stereo
Mode extension : MS Stereo
Codec ID : 55
Codec ID/Hint : MP3
Duration : 1h 14mn
Bit rate mode : Constant
Bit rate : 128 Kbps
Channel(s) : 2 channels
Sampling rate : 48.0 KHz
Compression mode : Lossy
Stream size : 67.8 MiB (5%)
Alignment : Split accross interleaves
Interleave, duration : 24 ms (0.60 video frame)
Title : DVD3AUDIO00
Показать сообщения:    

Текущее время: 21-Окт 11:16

Часовой пояс: UTC - 1


Вы не можете начинать темы
Вы не можете отвечать на сообщения
Вы не можете редактировать свои сообщения
Вы не можете удалять свои сообщения
Вы не можете голосовать в опросах
Вы не можете прикреплять файлы к сообщениям
Вы не можете скачивать файлы

!ВНИМАНИЕ!
Сайт не предоставляет электронные версии произведений, а занимается лишь коллекционированием и каталогизацией ссылок, присылаемых и публикуемых на форуме нашими читателями. Если вы являетесь правообладателем какого-либо представленного материала и не желаете, чтобы ссылка на него находилась в нашем каталоге, свяжитесь с нами, и мы незамедлительно удалим ее. Файлы для обмена на трекере предоставлены пользователями сайта, и администрация не несет ответственности за их содержание. Просьба не заливать файлы, защищенные авторскими правами, а также файлы нелегального содержания!