Важное объявление!
У Нас Все раздачи мультитрекерные, при нуле пиров в релизах, можете смело вставать на закачку!
 
Автор Сообщение

HUNTER

Стаж:
4 года 7 месяцев
Сообщений:
61460

Репутация: 101

[+] [-]
Вне форума [Профиль] [ЛС]

Поторопи закат / Hurry Sundown
Страна: США
Жанр: драма
Год выпуска: 1967
Продолжительность: 02:22:21-Перевод 1: Профессиональный (многоголосый закадровый) Paramount channel
Перевод 2: Одноголосый закадровый
Cубтитры: русские
Оригинальная аудиодорожка: английский-Режиссер: Отто Преминджер / Otto Preminger-В ролях: Джейн Фонда, Майкл Кейн, Лоринг Смит, Питер Гофф, Джордж Кеннеди, Джон Филлип Ло, Люк Аскью, Роберт Хукс, Би Ричардс, Бёрджесс Мередит-Описание:
После Второй мировой войны владельцы консервного завода ведут переговоры относительно покупки большого и необработанного земельного участка в штате Джорджия. Главная часть земли принадлежит Джули Энн Уоррен (Джейн Фонда). Вопрос владения землей и ее использования, опасность прихода новых хозяев, все это вызывает серьезные конфликты и открывает самые разные стороны характеров действующих лиц.-Сэмпл: Скачать-Тип релиза: BDRip 720p
Контейнер: MKV-Видео: 1280x546 (2.35:1); 7 281 Kbps; 23.976 fps; 0435 bpp
Аудио 1: Russian; AC3; 48.0 KHz; 2ch; 192 Kbps MVO
Аудио 2: Russian; AC3; 48.0 KHz; 2ch; 192 Kbps VO
Аудио 3: English; AC3; 48.0 KHz; 1ch; 384 Kbps
Формат субтитров: softsub (SRT)

MediaInfo

Format : Matroska
Format version : Version 4 / Version 2
File size : 8.17 GiB
Duration : 2h 22mn
Overall bit rate : 8 212 Kbps
Encoded date : UTC 2015-08-22 09:26:40
Writing application : mkvmerge v8.1.0 ('Psychedelic Postcard') 64bit
Writing library : libebml v1.3.1 + libmatroska v1.4.2
Attachements : poster.jpg
DURATION : 02:22:20.096000000
NUMBER_OF_FRAMES : 266878
NUMBER_OF_BYTES : 204962304
_STATISTICS_WRITING_APP : mkvmerge v8.1.0 ('Psychedelic Postcard') 64bit
_STATISTICS_WRITING_DATE_UTC : 2015-08-22 09:26:40
_STATISTICS_TAGS : BPS DURATION NUMBER_OF_FRAMES NUMBER_OF_BYTES
Video
ID : 1
Format : AVC
Format/Info : Advanced Video Codec
Format profile : High@L4.1
Format settings, CABAC : Yes
Format settings, ReFrames : 11 frames
Codec ID : V_MPEG4/ISO/AVC
Duration : 2h 22mn
Bit rate : 7 281 Kbps
Width : 1 280 pixels
Height : 546 pixels
Display aspect ratio : 2.35:1
Frame rate mode : Constant
Frame rate : 23.976 fps
Color space : YUV
Chroma subsampling : 4:2:0
Bit depth : 8 bits
Scan type : Progressive
Bits/(Pixel*Frame) : 0.435
Stream size : 7.24 GiB (89%)
Title : Hurry Sundown 1967 720p BluRay x264-CtrlHD
Writing library : x264 core 129 r2230 1cffe9f
Encoding settings : cabac=1 / ref=11 / deblock=1:-3:-3 / analyse=0x3:0x133 / me=umh / subme=11 / psy=1 / psy_rd=1.00:0.00 / mixed_ref=1 / me_range=64 / chroma_me=1 / trellis=2 / 8x8dct=1 / cqm=0 / deadzone=21,11 / fast_pskip=0 / chroma_qp_offset=-2 / threads=36 / lookahead_threads=6 / sliced_threads=0 / nr=0 / decimate=0 / interlaced=0 / bluray_compat=0 / constrained_intra=0 / bframes=9 / b_pyramid=2 / b_adapt=2 / b_bias=0 / direct=3 / weightb=1 / open_gop=0 / weightp=2 / keyint=240 / keyint_min=23 / scenecut=40 / intra_refresh=0 / rc=crf / mbtree=0 / crf=16.9 / qcomp=0.60 / qpmin=0 / qpmax=69 / qpstep=4 / ip_ratio=1.40 / pb_ratio=1.30 / aq=2:0.80
Language : English
Default : Yes
Forced : No
DURATION : 02:22:20.115000000
NUMBER_OF_FRAMES : 204758
NUMBER_OF_BYTES : 7945250617
_STATISTICS_WRITING_APP : mkvmerge v8.1.0 ('Psychedelic Postcard') 64bit
_STATISTICS_WRITING_DATE_UTC : 2015-08-22 09:26:40
_STATISTICS_TAGS : BPS DURATION NUMBER_OF_FRAMES NUMBER_OF_BYTES
Audio #1
ID : 2
Format : AC-3
Format/Info : Audio Coding 3
Mode extension : CM (complete main)
Format settings, Endianness : Big
Codec ID : A_AC3
Duration : 2h 22mn
Bit rate mode : Constant
Bit rate : 192 Kbps
Channel(s) : 2 channels
Channel positions : Front: L R
Sampling rate : 48.0 KHz
Bit depth : 16 bits
Compression mode : Lossy
Stream size : 195 MiB (2%)
Title : MVO Paramount channel
Language : Russian
Default : Yes
Forced : No
Audio #2
ID : 3
Format : AC-3
Format/Info : Audio Coding 3
Mode extension : CM (complete main)
Format settings, Endianness : Big
Codec ID : A_AC3
Duration : 2h 22mn
Bit rate mode : Constant
Bit rate : 192 Kbps
Channel(s) : 2 channels
Channel positions : Front: L R
Sampling rate : 48.0 KHz
Bit depth : 16 bits
Compression mode : Lossy
Stream size : 195 MiB (2%)
Title : VO binjak
Language : Russian
Default : No
Forced : No
Audio #3
ID : 4
Format : AC-3
Format/Info : Audio Coding 3
Mode extension : CM (complete main)
Format settings, Endianness : Big
Codec ID : A_AC3
Duration : 2h 22mn
Bit rate mode : Constant
Bit rate : 384 Kbps
Channel(s) : 1 channel
Channel positions : Front: C
Sampling rate : 48.0 KHz
Bit depth : 16 bits
Compression mode : Lossy
Stream size : 391 MiB (5%)
Language : English
Default : No
Forced : No
Text
ID : 5
Format : UTF-8
Codec ID : S_TEXT/UTF8
Codec ID/Info : UTF-8 Plain Text
Title : binjak
Language : Russian
Default : No
Forced : No
Menu
00:00:00.000 : en:Opening
00:13:24.971 : en:Home
00:40:16.414 : en:Old Friends
00:54:39.943 : en:Ulterior Motive
01:14:11.280 : en:The Funeral
01:37:08.531 : en:Day in Court
01:54:48.799 : en:The Truth
02:05:13.881 : en:Revenge

Скриншоты


_________________
Показать сообщения:    

Текущее время: Сегодня 01:30

Часовой пояс: GMT



Вы не можете начинать темы
Вы не можете отвечать на сообщения
Вы не можете редактировать свои сообщения
Вы не можете удалять свои сообщения
Вы не можете голосовать в опросах
Вы не можете прикреплять файлы к сообщениям
Вы не можете скачивать файлы
Наши партнеры: интернет магазин Ивановского трикотажа textilla.ru