Ивановский Торрент трекер
Яндекс.Погода
 

[Цитировать]
HUNTER

Потерянный уик-энд / The Lost Weekend- Страна: США
Студия: Paramount Pictures
Жанр: Фильм-нуар, драма
Год выпуска: 1945
Продолжительность: 01:40:45
Перевод: Профессиональный (многоголосый закадровый) Universal Pictures Rus
Перевод 2: Профессиональный (многоголосый закадровый) DVD Classic
Перевод 3: Профессиональный (многоголосый закадровый) New Dream Media
Cубтитры: английские
Оригинальная аудиодорожка: английский
Режиссер: Билли Уайлдер / Billy Wilder
В ролях: Рэй Милланд, Джейн Уаймен, Филлип Терри, Ховард Да Сильва, Дорис Даулинг, Фрэнк Фэйлен, Мэри Янг, Анита Шарп-Болстер, Лиллиан Фонтейн, Фрэнк Орт
Описание: Американский чёрно-белый художественный фильм 1945 года, снятый режиссёром Билли Уайлдером. Сценарий к фильму написан Чарльзом Брэкеттом и Билли Уайлдером на основе одноимённого романа, выпущенного американским писателем Чарлзом Джексоном в 1944 году.
Фильм показывает мрачный срез быта и нравов американского общества военного времени, в частности, трагедию опустившегося алкоголика - писателя по имени Дон Бирнам.

Сэмпл: http://www.sendspace.com/file/w0ywgx
Тип релиза: BDRip 1080p
Контейнер: MKV
Видео: Advanced Video Codec, 1436x1080, V_MPEG4/ISO/AVC, 4:3, 17.0 Mbps, 23.976 fps
Аудио: Русский, AC3, 2/0 (L,R) ch, 48.0 KHz, ~192.00 kbps
Аудио 2: Русский, AC3, 2/0 (L,R) ch, 48.0 KHz, ~192.00 kbps
Аудио 3: Русский: AC3, 2/0 (L,R) ch, 48.0 KHz, ~192.00 kbps
Аудио 4: English: FLAC 2.0, 2/0 (L,R) ch, 48.0 KHz, ~271.00 kbps
Формат субтитров: softsub (SRT)

Релиз подготовлен: nmd

Синхронизация русских дорог: xamster
Сохранены оригинальные чаптеры как на Blu-ray.
Дорожка DVD Classic из личной коллекции xamster'a, ранее в сети не встречалась.
За исходник дорожки New Dream Media спасибо Diablo, хотя, как позже выяснилось, дорожка была в свободном доступе в сети.
Русские субтитры на диске от Universal Pictures Rus оказались форсированными и всего на пару строк, поэтому в раздачу не включены. Других субтитров на фильм не нашлось.

MediaInfo

Format : Matroska
Format version : Version 2
File size : 12.6 GiB
Duration : 1h 40mn
Overall bit rate mode : Variable
Overall bit rate : 17.9 Mbps
Movie name : The Lost Weekend (1945) - Release for HDCLUB (nmd team)
Encoded date : UTC 2013-01-29 13:29:31
Writing application : mkvmerge v5.8.0 ('No Sleep / Pillow') built on Sep 2 2012 15:37:04
Writing library : libebml v1.2.3 + libmatroska v1.3.0
Video
ID : 1
Format : AVC
Format/Info : Advanced Video Codec
Format profile : High@L4.1
Format settings, CABAC : Yes
Format settings, ReFrames : 5 frames
Codec ID : V_MPEG4/ISO/AVC
Duration : 1h 40mn
Nominal bit rate : 17.0 Mbps
Width : 1 436 pixels
Height : 1 080 pixels
Display aspect ratio : 4:3
Frame rate mode : Constant
Frame rate : 23.976 fps
Color space : YUV
Chroma subsampling : 4:2:0
Bit depth : 8 bits
Scan type : Progressive
Bits/(Pixel*Frame) : 0.457
Title : Release for HDCLUB (nmd team)
Writing library : x264 core 128 r2216 198a7ea
Encoding settings : cabac=1 / ref=5 / deblock=1:-3:-3 / analyse=0x3:0x113 / me=umh / subme=11 / psy=1 / psy_rd=1.05:0.25 / mixed_ref=1 / me_range=32 / chroma_me=1 / trellis=2 / 8x8dct=1 / cqm=0 / deadzone=6,6 / fast_pskip=1 / chroma_qp_offset=-4 / threads=9 / lookahead_threads=1 / sliced_threads=0 / nr=0 / decimate=0 / interlaced=0 / bluray_compat=0 / constrained_intra=0 / bframes=6 / b_pyramid=2 / b_adapt=2 / b_bias=0 / direct=1 / weightb=1 / open_gop=0 / weightp=2 / keyint=240 / keyint_min=23 / scenecut=40 / intra_refresh=0 / rc=2pass / mbtree=0 / bitrate=17000 / ratetol=1.0 / qcomp=0.60 / qpmin=0 / qpmax=69 / qpstep=4 / cplxblur=20.0 / qblur=0.5 / ip_ratio=1.30 / pb_ratio=1.10 / aq=1:0.50
Language : English
Default : Yes
Forced : No
Color primaries : BT.709
Transfer characteristics : BT.709
Matrix coefficients : BT.709
Audio #1
ID : 2
Format : AC-3
Format/Info : Audio Coding 3
Mode extension : CM (complete main)
Format settings, Endianness : Big
Codec ID : A_AC3
Duration : 1h 40mn
Bit rate mode : Constant
Bit rate : 192 Kbps
Channel(s) : 2 channels
Channel positions : Front: L R
Sampling rate : 48.0 KHz
Bit depth : 16 bits
Compression mode : Lossy
Stream size : 138 MiB (1%)
Title : ac3 2.0 @ 192 kbps |Mvo,Universal Pictures Rus|
Language : Russian
Default : Yes
Forced : No
Audio #2
ID : 3
Format : AC-3
Format/Info : Audio Coding 3
Mode extension : CM (complete main)
Format settings, Endianness : Big
Codec ID : A_AC3
Duration : 1h 40mn
Bit rate mode : Constant
Bit rate : 192 Kbps
Channel(s) : 2 channels
Channel positions : Front: L R
Sampling rate : 48.0 KHz
Bit depth : 16 bits
Compression mode : Lossy
Stream size : 138 MiB (1%)
Title : ac3 2.0 @ 192 kbps |Mvo, DVD Classic|
Language : Russian
Default : No
Forced : No
Audio #3
ID : 4
Format : AC-3
Format/Info : Audio Coding 3
Mode extension : CM (complete main)
Format settings, Endianness : Big
Codec ID : A_AC3
Duration : 1h 40mn
Bit rate mode : Constant
Bit rate : 192 Kbps
Channel(s) : 2 channels
Channel positions : Front: L R
Sampling rate : 48.0 KHz
Bit depth : 16 bits
Compression mode : Lossy
Stream size : 138 MiB (1%)
Title : ac3 2.0 @ 192 kbps |Mvo, New Dream Media|
Language : Russian
Default : No
Forced : No
Audio #4
ID : 5
Format : FLAC
Format/Info : Free Lossless Audio Codec
Codec ID : A_FLAC
Duration : 1h 40mn
Bit rate mode : Variable
Channel(s) : 2 channels
Sampling rate : 48.0 KHz
Bit depth : 16 bits
Title : FLAC 2.0 @ 271 kbps
Writing library : libFLAC 1.2.1 (UTC 2007-09-17)
Language : English
Default : No
Forced : No
Text
ID : 6
Format : UTF-8
Codec ID : S_TEXT/UTF8
Codec ID/Info : UTF-8 Plain Text
Language : English
Default : No
Forced : No
Menu
00:00:00.000 : en:00:00:00.000
00:01:29.089 : en:00:01:29.089
00:10:13.112 : en:00:10:13.112
00:12:51.771 : en:00:12:51.771
00:18:02.248 : en:00:18:02.248
00:26:10.277 : en:00:26:10.277
00:28:40.010 : en:00:28:40.010
00:39:23.319 : en:00:39:23.319
00:53:00.677 : en:00:53:00.677
01:01:40.196 : en:01:01:40.196
01:09:12.023 : en:01:09:12.023
01:12:04.445 : en:01:12:04.445
01:16:51.482 : en:01:16:51.482
01:24:41.576 : en:01:24:41.576
01:30:06.818 ...

Скриншоты

Source vs Encode



Показать сообщения:    

Текущее время: 20-Сен 21:04

Часовой пояс: UTC - 1


Вы не можете начинать темы
Вы не можете отвечать на сообщения
Вы не можете редактировать свои сообщения
Вы не можете удалять свои сообщения
Вы не можете голосовать в опросах
Вы не можете прикреплять файлы к сообщениям
Вы не можете скачивать файлы

!ВНИМАНИЕ!
Сайт не предоставляет электронные версии произведений, а занимается лишь коллекционированием и каталогизацией ссылок, присылаемых и публикуемых на форуме нашими читателями. Если вы являетесь правообладателем какого-либо представленного материала и не желаете, чтобы ссылка на него находилась в нашем каталоге, свяжитесь с нами, и мы незамедлительно удалим ее. Файлы для обмена на трекере предоставлены пользователями сайта, и администрация не несет ответственности за их содержание. Просьба не заливать файлы, защищенные авторскими правами, а также файлы нелегального содержания!