Важное объявление!
У Нас Все раздачи мультитрекерные, при нуле пиров в релизах, можете смело вставать на закачку!
 
Автор Сообщение

HUNTER

Стаж:
4 года 8 месяцев
Сообщений:
62035

Репутация: 101

[+] [-]
Вне форума [Профиль] [ЛС]

Потерянный горизонт / Lost Horizon
Страна: США
Жанр: фэнтези, драма, детектив, приключения
Год выпуска: 1937
Продолжительность: 02:13:09
Перевод: Профессиональный (многоголосый закадровый) DVD Classic
Cубтитры: английские
Оригинальная аудиодорожка: английский
Режиссер: Фрэнк Капра / Frank Capra
В ролях: Рональд Колман, Джейн Уайатт, Эдвард Эверетт Хортон, Джон Ховард, Томас Митчелл, Марго, Изабель Джуэлл, Х.Б. Уорнер, Сэм Джаффе, Норман Эйнсли
Описание: Герои фильма попадают в мифическую страну Шангри-Ла, о которой грезят все поклонники эзотерических знаний. По их мнению, духовный «центр» человечества расположен в сердце Гималаев, в районе, который не отмечен на картах и, по существу, недоступен, ибо мы ещё не готовы правильно использовать сконцентрированные там энергию и информацию.
Рональд Колман в роли британского дипломата, идеалиста-мечтателя Роберта Конвея, вылетающего последним самолётом из охваченного пламенем революции Китая. С ним пёстрая компания попутчиков: его младший брат, чудаковатый палеонтолог, жулик и проститутка. Пилот меняет курс и сажает самолет в снегах Тибета. Загадочные монахи проводят пассажиров секретными тропами в тёплую, плодородную долину с великолепными мраморными статуями, садами и террасами, царство мира и гармонии во главе с Верховным Ламой…
Конвею предлагают стать новым правителем, но плата за это будет высокой… В то же время, возникает подозрение, что нынешний Лама — невменяемый самозванец, а все неземные чудеса этого рая на земле — фикция…
Доп. информация:


За дорожку с переводом спасибо palmeiras
Исходный многоканальный перевод дутый:

Оригинальный негатив полной версии фильма был утрачен, поэтому видеоряд восстановлен из оставшихся сокращенных версий. Качественный уровень всех отыскавшихся кусков абсолютно разный. Все 132 минуты оригинального звука были найдены. Видеоряд же был восстановлен не полностью. Отсутствующие 7 минут записи при реставрировании были заменены стоп-кадрами и фотографиями.
Сэмпл: http://sendfile.su/1039381
Тип релиза: WEB-DL 720p
Контейнер: MKV
Видео: AVC, 1004x720, L3.1, 23.976fps, 4131kbps
Аудио 1: Russian: AC3, 48000Hz, 2ch, 192kbps
Аудио 2: English: AC3, 48000Hz, 2ch, 192kbps - DVD
Аудио 3: English: AAC, 48000Hz, 2ch, 122kbps - WEB-DL
Аудио 4: English: AC3, 48000Hz, 2ch, 192kbps - commentary by noted critic Charles Champlin & UCLA Film restoration expert Robert Gitt
Формат субтитров: softsub (SRT)

MediaInfo

Общее
Уникальный идентификатор : 240947285795480913829035644167894655839 (0xB544C25FBB0F538CB007421C2D20E35F)
Полное имя : T:\Lost Horizon (WEB-DL 720p).mkv
Формат : Matroska
Версия формата : Version 4 / Version 2
Размер файла : 4,49 Гбайт
Продолжительность : 2 ч. 13 м.
Общий поток : 4830 Кбит/сек
Дата кодирования : UTC 2014-10-24 09:03:37
Программа кодирования : mkvmerge v6.9.1 ('Blue Panther') 64bit built on Apr 18 2014 18:23:38
Библиотека кодирования : libebml v1.3.0 + libmatroska v1.4.1
Видео
Идентификатор : 1
Формат : AVC
Формат/Информация : Advanced Video Codec
Профиль формата : High@L3.1
Параметр CABAC формата : Нет
Параметр ReFrames формата : 2 кадра
Идентификатор кодека : V_MPEG4/ISO/AVC
Продолжительность : 2 ч. 13 м.
Ширина : 1004 пикселя
Высота : 720 пикселей
Соотношение сторон : 1,394
Режим частоты кадров : Постоянный
Частота кадров : 23,976 кадра/сек
Цветовое пространство : YUV
Субдискретизация насыщенности : 4:2:0
Битовая глубина : 8 бит
Тип развёртки : Прогрессивная
Язык : English
Default : Да
Forced : Нет
Основные цвета : BT.709
Характеристики трансфера : BT.709
Коэффициенты матрицы : BT.709
Аудио #1
Идентификатор : 2
Формат : AC-3
Формат/Информация : Audio Coding 3
Расширение режима : CM (complete main)
Параметр Endianness формата : Big
Идентификатор кодека : A_AC3
Продолжительность : 2 ч. 13 м.
Вид битрейта : Постоянный
Битрейт : 192 Кбит/сек
Каналы : 2 канала
Расположение каналов : Front: L R
Частота : 48,0 КГц
Битовая глубина : 16 бит
Метод сжатия : С потерями
Размер потока : 183 Мбайт (4%)
Заголовок : DVD Classic
Язык : Russian
Default : Да
Forced : Нет
Аудио #2
Идентификатор : 3
Формат : AC-3
Формат/Информация : Audio Coding 3
Расширение режима : CM (complete main)
Параметр Endianness формата : Big
Идентификатор кодека : A_AC3
Продолжительность : 2 ч. 13 м.
Вид битрейта : Постоянный
Битрейт : 192 Кбит/сек
Каналы : 2 канала
Расположение каналов : Front: L R
Частота : 48,0 КГц
Битовая глубина : 16 бит
Метод сжатия : С потерями
Размер потока : 183 Мбайт (4%)
Заголовок : DVD
Язык : English
Default : Нет
Forced : Нет
Аудио #3
Идентификатор : 4
Формат : AAC
Формат/Информация : Advanced Audio Codec
Профиль формата : LC
Идентификатор кодека : A_AAC
Продолжительность : 2 ч. 13 м.
Каналы : 2 канала
Расположение каналов : Front: L R
Частота : 48,0 КГц
Метод сжатия : С потерями
Заголовок : WEB-DL
Язык : English
Default : Нет
Forced : Нет
Аудио #4
Идентификатор : 5
Формат : AC-3
Формат/Информация : Audio Coding 3
Расширение режима : CM (complete main)
Параметр Endianness формата : Big
Идентификатор кодека : A_AC3
Продолжительность : 2 ч. 13 м.
Вид битрейта : Постоянный
Битрейт : 192 Кбит/сек
Каналы : 2 канала
Расположение каналов : Front: L R
Частота : 48,0 КГц
Битовая глубина : 16 бит
Метод сжатия : С потерями
Размер потока : 183 Мбайт (4%)
Заголовок : commentary by noted critic Charles Champlin & UCLA Film restoration expert Robert Gitt
Язык : English
Default : Нет
Forced : Нет
Текст
Идентификатор : 6
Формат : UTF-8
Идентификатор кодека : S_TEXT/UTF8
Идентификатор кодека/Информация : UTF-8 Plain Text
Язык : English
Default : Нет
Forced : Нет
Меню
00:00:00.000 : en:Start
00:03:31.000 : en:Baskful
00:08:14.000 : en:Five Refugees
00:15:07.000 : en:Shanghaied
00:24:56.000 : en:Crash Landing
00:29:41.000 : en:Rescued
00:34:01.000 : en:Shangri-La
00:40:08.000 : en:No Contact
00:46:35.000 : en:"What is Shangr-La?"
00:50:33.000 : en:Father Perrault
00:56:49.000 : en:The Valley Of The Moon
01:01:20.000 : en:Masks Removed
01:05:35.000 : en:Amazing News
01:07:53.000 : en:The High Lama
01:18:12.000 : en:"Lullaby & Goodnight"
01:20:20.000 : en:Sondra's Pigeons
01:31:14.000 : en:Waiting for the Bump
01:37:10.000 : en:"Age is a limit"
01:39:56.000 : en:Transfer of Command
01:43:25.000 : en:"We're Leaving"
01:46:34.000 : en:Tales of Madness
01:56:10.000 : en:"He Will Return"
01:59:17.000 : en:Target Practice
02:01:00.000 : en:Avalanche
02:02:17.000 : en:The Echo Fades
02:07:09.000 : en:FOUND ALIVE
02:09:24.000 : en:Gainsford's Report
02:12:02.000 : en:Paradise Regained

Скриншоты


_________________
Показать сообщения:    

Текущее время: Сегодня 19:25

Часовой пояс: GMT



Вы не можете начинать темы
Вы не можете отвечать на сообщения
Вы не можете редактировать свои сообщения
Вы не можете удалять свои сообщения
Вы не можете голосовать в опросах
Вы не можете прикреплять файлы к сообщениям
Вы не можете скачивать файлы
Наши партнеры: интернет магазин Ивановского трикотажа textilla.ru