Важное объявление!
У Нас Все раздачи мультитрекерные, при нуле пиров в релизах, можете смело вставать на закачку!
 
Автор Сообщение

HUNTER

Стаж:
4 года 7 месяцев
Сообщений:
61573

Репутация: 101

[+] [-]
Вне форума [Профиль] [ЛС]

-
Страна: Япония
Год выпуска: 2012
Жанр: комедия, мистика, романтика, этти
Продолжительность: (12 эп.), 25 мин.-Перевод:
  • русские субтитры от Fratelli(Jenia aka Zub – перевод,
    Мария Гостюхина - перевод песен)
    (полные/вспомогательные)-Режиссер: Кудзё Рион
    Студия: ARMS-Описание: На альтернативной Земле люди привыкли, что тысячи юношей и девушек регулярно проваливаются в иные миры, и многие возвращаются, овладев могучей магией и другими полезными навыками. Конечно же, сразу выпускать таких «попаданцев» в обычную жизнь нельзя, потому всех их ждет «Вавилон» - огромная современная спецшкола для реабилитации и получения достойного места в обществе. Непосвященным, в том числе ученикам, невдомек, что власть на планете давно принадлежит самым сильным, жестоким и беспринципным магам-возвращенцам, а «Вавилон» готовит либо пополнение для рядов элиты, либо послушную пехоту и пушечное мясо для далеко идущих планов.
    Вот только новенький по имени Акацуки Осава с момента появления начал путать расклады хозяев жизни. В мире, куда он попал, Осава натворил такое, что местный дипломированный герой умер от стыда, а Князь Тьмы вручил парню перед смертью единственную дочь. Силы Света уже хотели кардинально исправить «заблудшего героя», но он сделал им ручкой и, захватив красавицу Миу, отправился домой. Жители «Вавилона» быстро поняли, что под маской развязного хулигана Акацуки умен, расчетлив, дьявольски силен, а в обращении с девушками достиг такого уровня, что все известные гаремные лидеры могут прямо сейчас записываться на курсы. Что ни говори, учиться у реального «плохого парня» куда полезнее, чем у прекраснодушного сопливого слабака!
    © Hollow, World Art-Качество: BDRemux
    Тип релиза: Без хардсаба
    Формат видео: M2TS
    Видео: MPEG4 Video (H264) 1920x1080 23.976 fps ~38.2 Mbps
    Аудио JAP: PCM, 48000Hz, ~1536 Kbps 2ch-

Подробные тех. данные

General ID : 0 (0x0) Complete name : D:\Hagure Yuusha no Estetica\Hagure Yuusha no Estetica 01.m2ts Format : BDAV Format/Info : Blu-ray Video File size : 6.85 GiB Duration : 23mn 41s Overall bit rate mode : Variable Overall bit rate : 41.4 Mbps Maximum Overall bit rate : 48.0 Mbps Video #4113 ID : 4113 (0x1011) Menu ID : 1 (0x1) Format : AVC Format/Info : Advanced Video Codec Format profile : High@L4.1 Format settings, CABAC : Yes Format settings, ReFrames : 2 frames Codec ID : 27 Duration : 23mn 41s Bit rate mode : Variable Bit rate : 38.2 Mbps Width : 1 920 pixels Height : 1 080 pixels Display aspect ratio : 16:9 Frame rate : 23.976 fps Color space : YUV Chroma subsampling : 4:2:0 Bit depth : 8 bits Scan type : Progressive Bits/(Pixel*Frame) : 0.768 Stream size : 6.32 GiB (92%) Audio #4352 ID : 4352 (0x1100) Menu ID : 1 (0x1) Format : PCM Format settings, Endianness : Big Format settings, Sign : Signed Muxing mode : Blu-ray Codec ID : 128 Duration : 23mn 41s Bit rate mode : Constant Bit rate : 1 536 Kbps Channel(s) : 2 channels Channel positions : Front: L R Sampling rate : 48.0 KHz Bit depth : 16 bits Stream size : 260 MiB (4%)

Список эпизодов

01.A Strong, New Game
02.Holy Water Bond
03.To Become an Adult
04.The Hero`s Back
05.A Day We Spend in the Weekend
06.Supersonic Speed! Sleipnir
07.A Brute Panic on the Beach!
08.Babel`s Ranking Tests Commence
09.On Such a Beautiful Moonlit Night
10.Where I Belong
11.Before Daybreak
12.The World Is Watching You

Скриншоты

Дополнительная информация

Русскую озвучку можно скачать здесь

_________________
Показать сообщения:    

Текущее время: Сегодня 15:24

Часовой пояс: GMT



Вы не можете начинать темы
Вы не можете отвечать на сообщения
Вы не можете редактировать свои сообщения
Вы не можете удалять свои сообщения
Вы не можете голосовать в опросах
Вы не можете прикреплять файлы к сообщениям
Вы не можете скачивать файлы
Наши партнеры: интернет магазин Ивановского трикотажа textilla.ru