Важное объявление!
У Нас Все раздачи мультитрекерные, при нуле пиров в релизах, можете смело вставать на закачку!
 
Автор Сообщение

HUNTER

Стаж:
4 года 10 месяцев
Сообщений:
65492

Репутация: 101

[+] [-]
Вне форума [Профиль] [ЛС]

Потанцуй со мной на улице / Dance Me Outside

Слоган: «When the party's over, real life kicks into gear!»
Страна: Канада
Студия: Cineplex-Odeon Films, Shadow Shows, Yorktown Productions
Жанр: драма, комедия
Год выпуска: 1994
Продолжительность: 01:20:53
Перевод: Любительский (двухголосый закадровый) - DeadSno & den904
Cубтитры: французские(неотключаемые)
Оригинальная аудиодорожка: английский
Режиссер: Брюс МакДональд / Bruce McDonald
В ролях: Райан Рахендра Блэк, Адам Бич, Дженнифер Подемски, Майкл Грейес, Лиза ЛаКруа, Кевин Хикс, Роуз Мари Трюдо, Глория Мэй Эшкибок, Селим Раннинг Беар Сандовал, Сандрин Холт ...
Описание: Драма о жизни канадских индейцев. Главный герой, от лица которого ведётся рассказ, восемнадцатилетний Сайлас Кроу. Значительную часть экранного времени занимает повествование о жизни Кроу, его родных, друзьях, девушке. Их жизнь полна несправедливости и безысходности, бедность — их постоянный спутник.
После убийства девушки-индианки из резервации Сэйди Мэрэкл, Кларанс Гаскилл получает за это всего два года тюрьмы, но среди индейцев найдутся те, кто готов отомстить.
Доп. информация: Исходник Dance me outside TV HD 1080 AVC MP2 найден в сети.--Спасибо за рус. и анг. дорожки [url=viewtopic.php?t=5051887]Grandfather61[/url]-- --Dance Me Outside_(1994)_1080i HDTV_Sample_.mkv--Фильм переведен и озвучен специально для: 7букв Вестерн / группа Джесси Джеймса
Перевод: Два Волка
Закадровый текст: DeadSno & den904-
-

...из книги «3500 кинорецензий»


-
-

Награды


-
-Тип релиза: HDTV 1080i
Контейнер: MKV
Видео: x264, 1920x1080, 16:9, 25.000 fps, 8 447 Kbps, Progressive, 0.163 Bits/(Pixel*Frame)
Аудио 1: 48 kHz, AC3 Dolby Digital, 2/0 (L,R) ch, ~ 192 kbps, Русский
Аудио 2: 48 kHz, AC3 Dolby Digital, 2/0 (L,R) ch, ~ 192 kbps, Английский
Формат субтитров: hardsub (неотключаемые)

MediaInfo

General
Unique ID : 222033492834879138541504676258717510896 (0xA70A18625A8B9B67AF28136987022CF0)
Complete name : I:\111\z_D_Disk\Dance Me Outside_(1994)_1080i HDTV_.mkv
Format : Matroska
Format version : Version 4 / Version 2
File size : 5.09 GiB
Duration : 1 h 20 min
Overall bit rate : 9 011 kb/s
Encoded date : UTC 2016-10-11 08:03:10
Writing application : mkvmerge v8.6.1 ('Flying') 64bit
Writing library : libebml v1.3.3 + libmatroska v1.4.4
Video
ID : 1
Format : AVC
Format/Info : Advanced Video Codec
Format profile : High@L4
Format settings, CABAC : Yes
Format settings, ReFrames : 4 frames
Format settings, GOP : M=8, N=32
Codec ID : V_MPEG4/ISO/AVC
Duration : 1 h 20 min
Bit rate : 8 447 kb/s
Width : 1 920 pixels
Height : 1 080 pixels
Display aspect ratio : 16:9
Frame rate mode : Constant
Frame rate : 25.000 FPS
Color space : YUV
Chroma subsampling : 4:2:0
Bit depth : 8 bits
Scan type : MBAFF
Scan type, store method : Interleaved fields
Scan order : Top Field First
Bits/(Pixel*Frame) : 0.163
Stream size : 4.77 GiB (94%)
Title : Dance Me Outside (1994)_1080i HDTV_[Muxed_by_rjhlb777]
Language : English
Default : Yes
Forced : No
Color range : Limited
Color primaries : BT.709
Transfer characteristics : BT.709
Matrix coefficients : BT.709
Audio #1
ID : 2
Format : AC-3
Format/Info : Audio Coding 3
Mode extension : CM (complete main)
Format settings, Endianness : Big
Codec ID : A_AC3
Duration : 1 h 20 min
Bit rate mode : Constant
Bit rate : 192 kb/s
Channel(s) : 2 channels
Channel positions : Front: L R
Sampling rate : 48.0 kHz
Frame rate : 31.250 FPS (1536 spf)
Compression mode : Lossy
Stream size : 111 MiB (2%)
Title : DVO (DeadSno & den904)
Language : Russian
Default : Yes
Forced : No
Audio #2
ID : 3
Format : AC-3
Format/Info : Audio Coding 3
Mode extension : CM (complete main)
Format settings, Endianness : Big
Codec ID : A_AC3
Duration : 1 h 20 min
Bit rate mode : Constant
Bit rate : 192 kb/s
Channel(s) : 2 channels
Channel positions : Front: L R
Sampling rate : 48.0 kHz
Frame rate : 31.250 FPS (1536 spf)
Compression mode : Lossy
Stream size : 111 MiB (2%)
Title : Original
Language : English
Default : No
Forced : No

_________________
Показать сообщения:    

Текущее время: Сегодня 03:45

Часовой пояс: GMT



Вы не можете начинать темы
Вы не можете отвечать на сообщения
Вы не можете редактировать свои сообщения
Вы не можете удалять свои сообщения
Вы не можете голосовать в опросах
Вы не можете прикреплять файлы к сообщениям
Вы не можете скачивать файлы