Важное объявление!
У Нас Все раздачи мультитрекерные, при нуле пиров в релизах, можете смело вставать на закачку!
Статистика раздачи
Размер:     |    Зарегистрирован:     |    Скачан:     |   
Нет
 
     
 
 
Автор Сообщение

HUNTER

Стаж:
5 лет
Сообщений:
68391

Репутация: 101

[+] [-]
Вне форума [Профиль] [ЛС]

Потанцуем: Парные танцы для начинающих-

Год выпуска: 2005
Страна: Россия
Сайт производителя: отсутствует
Тематика: Танцы
Тип материала: Обучающее видео-Продолжительность: 75 мин
Автор: не известен-Язык: Русский
Субтитры: отсутствуют-Описание: Эта программа предназначена для начинающих. Совершенно не обязательно обладать специальной физической подготовкой, не имеет большого значения и возраст. Предлагаемая программа позволит людям быстро и легко овладеть основными навыками различных танцевальных направлений: современные стили, латиноамериканский стиль (ча-ча-ча, самба), европейский стиль (вальс, фокстрот, рок-н-ролл и немного танго). Уникальная методика преподносится опытными педагогами, танцорами международного класса и победителями международных турниров.-Качество: DVDRip
Формат: DVD Video
Видео кодек: DivX
Аудио кодек: MP3
Видео: 720x576, 9 500 Kbps, 25.000 fps, 0.728 Bits/(Pixel*Frame)
Аудио: AC-3, 192 Kbps, 2 channels, 48.0 KHz-

MediaInfo

Код: copyText_writeLink('this.parentNode.parentNode.nextSibling.nextSibling'); General
Complete name : E:\Обучение\Parnie tanzi dlja nachinaushich\VIDEO_TS\VTS_01_1.VOB
Format : MPEG-PS
File size : 1 024 MiB
Duration : 18mn 7s
Overall bit rate mode : Variable
Overall bit rate : 7 896 Kbps
Video
ID : 224 (0xE0)
Format : MPEG Video
Format version : Version 2
Format profile : Main@Main
Format settings, BVOP : Yes
Format settings, Matrix : Custom
Format settings, GOP : M=3, N=15
Duration : 18mn 7s
Bit rate mode : Variable
Bit rate : 7 547 Kbps
Maximum bit rate : 9 500 Kbps
Width : 720 pixels
Height : 576 pixels
Display aspect ratio : 4:3
Frame rate : 25.000 fps
Standard : PAL
Color space : YUV
Chroma subsampling : 4:2:0
Bit depth : 8 bits
Scan type : Interlaced
Scan order : Bottom Field First
Compression mode : Lossy
Bits/(Pixel*Frame) : 0.728
Stream size : 979 MiB (96%)
Audio
ID : 189 (0xBD)-128 (0x80)
Format : AC-3
Format/Info : Audio Coding 3
Mode extension : CM (complete main)
Format settings, Endianness : Big
Muxing mode : DVD-Video
Duration : 18mn 7s
Bit rate mode : Constant
Bit rate : 192 Kbps
Channel(s) : 2 channels
Channel positions : Front: L R
Sampling rate : 48.0 KHz
Bit depth : 16 bits
Compression mode : Lossy
Stream size : 24.9 MiB (2%)
Menu
- -

_________________
Показать сообщения:    

Текущее время: Сегодня 21:50

Часовой пояс: GMT



Вы не можете начинать темы
Вы не можете отвечать на сообщения
Вы не можете редактировать свои сообщения
Вы не можете удалять свои сообщения
Вы не можете голосовать в опросах
Вы не можете прикреплять файлы к сообщениям
Вы не можете скачивать файлы