Ивановский Торрент трекер
Яндекс.Погода
 

[Цитировать]
HUNTER

Построить ракету
Год выпуска: 2008
Страна: Россия
Продолжительность: 44-37
Режиссер: Андрей Тарасенко
Описание: Казалось бы, чего мы еще не знаем о нашем космосе? Мы – первые, Юрий Гагарин – первый, и этим сказано все. Однако история создания первой космической ракеты уходит в военное прошлое.
Качество: SATRip
Формат: MPEG
Видео кодек: MPEG2
Аудио кодек: Mpeg-1
Видео: MPEG2 704x576 (4:3) 25.00fps 3050Kbps
Аудио: MPEG 48000Hz stereo 192Kbps

Скриншоты

MediaInfo

GeneralComplete name : M:\SpaceDust\01.Space\01.USSR\2008 - Построить ракету (Андрей Тарасенко)\Jivaya istoria-Postroit raketu!.mpgFormat : MPEG-PSFile size : 976 MiBDuration : 44mn 37sOverall bit rate mode : VariableOverall bit rate : 3 058 KbpsWriting library : (c) 1998-2007 Womble Multimedia, Inc. / MPEG Video Wizard (12/2007) / Mar 31 2008
VideoID : 224 (0xE0)Format : MPEG VideoFormat version : Version 2Format profile : Main@MainFormat settings, BVOP : YesFormat settings, Matrix : CustomFormat settings, GOP : VariableDuration : 44mn 37sBit rate mode : VariableBit rate : 2 805 KbpsMaximum bit rate : 15.0 MbpsWidth : 704 pixelsHeight : 576 pixelsDisplay aspect ratio : 4:3Frame rate : 25.000 fpsStandard : PALColor space : YUVChroma subsampling : 4:2:0Bit depth : 8 bitsScan type : ProgressiveScan order : Top Field FirstCompression mode : LossyBits/(Pixel*Frame) : 0.277Time code of first frame : 00:00:00:00Time code source : Group of pictures headerStream size : 895 MiB (92%)Writing library : (c) 1998-2007 Womble Multimedia, Inc. / MPEG Video Wizard (12/2007) / Mar 31 2008
AudioID : 192 (0xC0)Format : MPEG AudioFormat version : Version 1Format profile : Layer 2Duration : 44mn 37sBit rate mode : ConstantBit rate : 192 KbpsChannel(s) : 2 channelsSampling rate : 48.0 KHzCompression mode : LossyDelay relative to video : -80msStream size : 61.3 MiB (6%)
Menu
Показать сообщения:    

Текущее время: 20-Окт 07:52

Часовой пояс: UTC - 1


Вы не можете начинать темы
Вы не можете отвечать на сообщения
Вы не можете редактировать свои сообщения
Вы не можете удалять свои сообщения
Вы не можете голосовать в опросах
Вы не можете прикреплять файлы к сообщениям
Вы не можете скачивать файлы

!ВНИМАНИЕ!
Сайт не предоставляет электронные версии произведений, а занимается лишь коллекционированием и каталогизацией ссылок, присылаемых и публикуемых на форуме нашими читателями. Если вы являетесь правообладателем какого-либо представленного материала и не желаете, чтобы ссылка на него находилась в нашем каталоге, свяжитесь с нами, и мы незамедлительно удалим ее. Файлы для обмена на трекере предоставлены пользователями сайта, и администрация не несет ответственности за их содержание. Просьба не заливать файлы, защищенные авторскими правами, а также файлы нелегального содержания!