Важное объявление!
У Нас Все раздачи мультитрекерные, при нуле пиров в релизах, можете смело вставать на закачку!
Статистика раздачи
Размер:     |    Зарегистрирован:     |    Скачан:     |   
Нет
 
     
 
 
Автор Сообщение

HUNTER

Стаж:
5 лет
Сообщений:
68415

Репутация: 101

[+] [-]
Вне форума [Профиль] [ЛС]

Пострелята / The Little Rascals
Охотники на медведей / Bear shooters
Год выпуска: 1929-1938
Страна: США
Жанр: Комедийные короткометражки
Продолжительность: 18:04
Перевод: Профессиональный (двухголосый закадровый) телекомпания Ника ТВ (отр. Wedis)
Русские субтитры: нет
Режиссёр: Гас Мэйнс / Gus Meins, Джеймс Пэрротт / James Parrott и др.
В ролях: Джорж "Спанки" МакФэрланд / George "Spanky" McFarland, Билли "Гречка" Томас / Billie "Buckwheat" Thomas, Карл "Люцерна" Свитцер / Carl "Alfalfa" Switzer, Скотти Беккет / Scotty Beckett и др.
Описание: Эти короткометражки выходили в США с 1922 по 1944 год. Их более двухста, если верить Wikipedia. В каждой - отдельный забавный случай из жизни веселых непоседливых малышей.
Доп. информация: Нашел старые видеокассеты, в 97 году писал серил с телека в режиме LP, отсюда и такое качество. Но так как в нете на русском это сриал вообще не найти, то решил что пусть будет хоть такое. Всего было записано 37 серий, но я не стал включать сюда серии из "Лучшее от Спанки", в итоге - 33 серии.
Ссылка на предыдущие и альтернативные раздачи: http://rutracker.org/forum/viewtopic.php?t=2718588
Качество: VHSRip
Формат: AVI
Видео кодек: XviD
Аудио кодек: MP3
Видео: 720x576 (4:3), 25 fps, XviD MPEG-4, 6281 Kbps, 0.606 bit/pixel
Аудио: 48 kHz, 1 ch, 1536 Кбит/сек

MI

General
Complete name : D:\Пострелята\1\Bear shooters.avi
Format : AVI
Format/Info : Audio Video Interleave
File size : 1 012 MiB
Duration : 18mn 4s
Overall bit rate : 7 827 Kbps
Writing library : VirtualDub build 32706/release
Video
ID : 0
Format : MPEG-4 Visual
Format profile : Advanced Simple@L5
Format settings, BVOP : Yes
Format settings, QPel : No
Format settings, GMC : No warppoints
Format settings, Matrix : Default (H.263)
Muxing mode : Packed bitstream
Codec ID : DIVX
Codec ID/Info : Project Mayo
Codec ID/Hint : DivX 4
Duration : 18mn 4s
Bit rate : 6 281 Kbps
Width : 720 pixels
Height : 576 pixels
Display aspect ratio : 5:4
Frame rate : 25.000 fps
Standard : PAL
Color space : YUV
Chroma subsampling : 4:2:0
Bit depth : 8 bits
Scan type : Progressive
Bits/(Pixel*Frame) : 0.606
Stream size : 812 MiB (80%)
Writing library : XviD 1.2.1 (UTC 2008-12-04)
Audio
Format : PCM
Format settings, Endianness : Little
Format settings, Sign : Unsigned
Codec ID : 1
Codec ID/Hint : Microsoft
Duration : 18mn 4s
Bit rate mode : Constant
Bit rate : 1 536 Kbps
Channel(s) : 2 channels
Sampling rate : 48.0 KHz
Bit depth : 16 bits
Stream size : 199 MiB (20%)
Interleave, duration : 40 ms (1.00 video frame)
Interleave, preload duration : 500 ms

Скриншоты

Удачный дебют / Beginner's Luck
Год выпуска: 1929-1938
Страна: США
Жанр: Комедийные короткометражки
Продолжительность: 17:22
Перевод: Профессиональный (двухголосый закадровый) телекомпания Ника ТВ
Русские субтитры: нет
Режиссёр: Гас Мэйнс / Gus Meins, Джеймс Пэрротт / James Parrott и др.
В ролях: Джорж "Спанки" МакФэрланд / George "Spanky" McFarland, Билли "Гречка" Томас / Billie "Buckwheat" Thomas, Карл "Люцерна" Свитцер / Carl "Alfalfa" Switzer, Скотти Беккет / Scotty Beckett и др.
Описание: Эти короткометражки выходили в США с 1922 по 1944 год. Их более двухста, если верить Wikipedia. В каждой - отдельный забавный случай из жизни веселых непоседливых малышей.
Качество: VHSRip
Формат: AVI
Видео кодек: XviD
Аудио кодек: MP3
Видео: 720x576 (4:3), 25 fps, XviD MPEG-4, 5822 Kbps, 0.562 bit/pixel
Аудио: 48 kHz, 1 ch, 1536 Кбит/сек

MI

General
Complete name : D:\Пострелята\1\Beginner's Luck.avi
Format : AVI
Format/Info : Audio Video Interleave
File size : 916 MiB
Duration : 17mn 22s
Overall bit rate : 7 366 Kbps
Video
ID : 0
Format : MPEG-4 Visual
Format profile : Advanced Simple@L5
Format settings, BVOP : Yes
Format settings, QPel : No
Format settings, GMC : No warppoints
Format settings, Matrix : Default (H.263)
Muxing mode : Packed bitstream
Codec ID : DIVX
Codec ID/Info : Project Mayo
Codec ID/Hint : DivX 4
Duration : 17mn 22s
Bit rate : 5 822 Kbps
Width : 720 pixels
Height : 576 pixels
Display aspect ratio : 5:4
Frame rate : 25.000 fps
Standard : PAL
Color space : YUV
Chroma subsampling : 4:2:0
Bit depth : 8 bits
Scan type : Progressive
Bits/(Pixel*Frame) : 0.562
Stream size : 724 MiB (79%)
Writing library : XviD 1.2.1 (UTC 2008-12-04)
Audio
Format : PCM
Format settings, Endianness : Little
Format settings, Sign : Unsigned
Codec ID : 1
Codec ID/Hint : Microsoft
Duration : 17mn 22s
Bit rate mode : Constant
Bit rate : 1 536 Kbps
Channel(s) : 2 channels
Sampling rate : 48.0 KHz
Bit depth : 16 bits
Stream size : 191 MiB (21%)
Interleave, duration : 1000 ms (25.00 video frames)

Скриншоты



Большие уши / Big ears
Год выпуска: 1929-1938
Страна: США
Жанр: Комедийные короткометражки
Продолжительность: 19:54
Перевод: Профессиональный (двухголосый закадровый) телекомпания Ника ТВ
Русские субтитры: нет
Режиссёр: Гас Мэйнс / Gus Meins, Джеймс Пэрротт / James Parrott и др.
В ролях: Джорж "Спанки" МакФэрланд / George "Spanky" McFarland, Билли "Гречка" Томас / Billie "Buckwheat" Thomas, Карл "Люцерна" Свитцер / Carl "Alfalfa" Switzer, Скотти Беккет / Scotty Beckett и др.
Описание: Эти короткометражки выходили в США с 1922 по 1944 год. Их более двухста, если верить Wikipedia. В каждой - отдельный забавный случай из жизни веселых непоседливых малышей.
Качество: VHSRip
Формат: AVI
Видео кодек: XviD
Аудио кодек: MP3
Видео: 720x576 (4:3), 25 fps, XviD MPEG-4, 5782 Kbps, 0.558 bit/pixel
Аудио: 48 kHz, 1 ch, 1536 Кбит/сек

MI

General
Complete name : D:\Пострелята\1\Big ears.avi
Format : AVI
Format/Info : Audio Video Interleave
Format profile : OpenDML
File size : 1.02 GiB
Duration : 19mn 54s
Overall bit rate : 7 325 Kbps
Video
ID : 0
Format : MPEG-4 Visual
Format profile : Advanced Simple@L5
Format settings, BVOP : Yes
Format settings, QPel : No
Format settings, GMC : No warppoints
Format settings, Matrix : Default (H.263)
Codec ID : DIVX
Codec ID/Info : Project Mayo
Codec ID/Hint : DivX 4
Duration : 19mn 54s
Bit rate : 5 782 Kbps
Width : 720 pixels
Height : 576 pixels
Display aspect ratio : 5:4
Frame rate : 25.000 fps
Standard : PAL
Color space : YUV
Chroma subsampling : 4:2:0
Bit depth : 8 bits
Scan type : Progressive
Bits/(Pixel*Frame) : 0.558
Stream size : 824 MiB (79%)
Writing library : XviD 1.2.1 (UTC 2008-12-04)
Audio
Format : PCM
Format settings, Endianness : Little
Format settings, Sign : Unsigned
Codec ID : 1
Codec ID/Hint : Microsoft
Duration : 19mn 54s
Bit rate mode : Constant
Bit rate : 1 536 Kbps
Channel(s) : 2 channels
Sampling rate : 48.0 KHz
Bit depth : 16 bits
Stream size : 219 MiB (21%)
Interleave, duration : 1000 ms (25.00 video frames)

Скриншоты



Первый поход / The first round-up
Год выпуска: 1929-1938
Страна: США
Жанр: Комедийные короткометражки
Продолжительность: 17:36
Перевод: Профессиональный (двухголосый закадровый) телекомпания Ника ТВ
Русские субтитры: нет
Режиссёр: Гас Мэйнс / Gus Meins, Джеймс Пэрротт / James Parrott и др.
В ролях: Джорж "Спанки" МакФэрланд / George "Spanky" McFarland, Билли "Гречка" Томас / Billie "Buckwheat" Thomas, Карл "Люцерна" Свитцер / Carl "Alfalfa" Switzer, Скотти Беккет / Scotty Beckett и др.
Описание: Эти короткометражки выходили в США с 1922 по 1944 год. Их более двухста, если верить Wikipedia. В каждой - отдельный забавный случай из жизни веселых непоседливых малышей.
Качество: VHSRip
Формат: AVI
Видео кодек: XviD
Аудио кодек: MP3
Видео: 720x576 (4:3), 25 fps, XviD MPEG-4, 4579 Kbps, 0.442 bit/pixel
Аудио: 48 kHz, 1 ch, 1536 Кбит/сек

MI

General
Complete name : D:\Пострелята\1\The first round-up.avi
Format : AVI
Format/Info : Audio Video Interleave
File size : 771 MiB
Duration : 17mn 36s
Overall bit rate : 6 122 Kbps
Video
ID : 0
Format : MPEG-4 Visual
Format profile : Advanced Simple@L5
Format settings, BVOP : Yes
Format settings, QPel : No
Format settings, GMC : No warppoints
Format settings, Matrix : Default (H.263)
Muxing mode : Packed bitstream
Codec ID : DIVX
Codec ID/Info : Project Mayo
Codec ID/Hint : DivX 4
Duration : 17mn 36s
Bit rate : 4 579 Kbps
Width : 720 pixels
Height : 576 pixels
Display aspect ratio : 5:4
Frame rate : 25.000 fps
Standard : PAL
Color space : YUV
Chroma subsampling : 4:2:0
Bit depth : 8 bits
Scan type : Progressive
Bits/(Pixel*Frame) : 0.442
Stream size : 577 MiB (75%)
Writing library : XviD 1.2.1 (UTC 2008-12-04)
Audio
Format : PCM
Format settings, Endianness : Little
Format settings, Sign : Unsigned
Codec ID : 1
Codec ID/Hint : Microsoft
Duration : 17mn 36s
Bit rate mode : Constant
Bit rate : 1 536 Kbps
Channel(s) : 2 channels
Sampling rate : 48.0 KHz
Bit depth : 16 bits
Stream size : 193 MiB (25%)
Interleave, duration : 1000 ms (24.99 video frames)

Скриншоты



Шумливый младенец/Bouncing Babies
Год выпуска: 1929-1938
Страна: США
Жанр: Комедийные короткометражки
Продолжительность: 19:30
Перевод: Профессиональный (двухголосый закадровый) телекомпания Ника ТВ
Русские субтитры: нет
Режиссёр: Гас Мэйнс / Gus Meins, Джеймс Пэрротт / James Parrott и др.
В ролях: Джорж "Спанки" МакФэрланд / George "Spanky" McFarland, Билли "Гречка" Томас / Billie "Buckwheat" Thomas, Карл "Люцерна" Свитцер / Carl "Alfalfa" Switzer, Скотти Беккет / Scotty Beckett и др.
Описание: Эти короткометражки выходили в США с 1922 по 1944 год. Их более двухста, если верить Wikipedia. В каждой - отдельный забавный случай из жизни веселых непоседливых малышей.
Качество: VHSRip
Формат: AVI
Видео кодек: XviD
Аудио кодек: MP3
Видео: 720x576 (4:3), 25 fps, XviD MPEG-4, 7410 Kbps, 0.715 bit/pixel
Аудио: 48 kHz, 1 ch, 1536 Кбит/сек

MI

General
Complete name : D:\Пострелята\2\Bouncing Babies.avi
Format : AVI
Format/Info : Audio Video Interleave
Format profile : OpenDML
File size : 1.22 GiB
Duration : 19mn 30s
Overall bit rate : 8 953 Kbps
Video
ID : 0
Format : MPEG-4 Visual
Format profile : Advanced Simple@L5
Format settings, BVOP : Yes
Format settings, QPel : No
Format settings, GMC : No warppoints
Format settings, Matrix : Default (H.263)
Muxing mode : Packed bitstream
Codec ID : DIVX
Codec ID/Info : Project Mayo
Codec ID/Hint : DivX 4
Duration : 19mn 30s
Bit rate : 7 410 Kbps
Width : 720 pixels
Height : 576 pixels
Display aspect ratio : 5:4
Frame rate : 25.000 fps
Standard : PAL
Color space : YUV
Chroma subsampling : 4:2:0
Bit depth : 8 bits
Scan type : Progressive
Bits/(Pixel*Frame) : 0.715
Stream size : 1.01 GiB (83%)
Writing library : XviD 1.2.1 (UTC 2008-12-04)
Audio
Format : PCM
Format settings, Endianness : Little
Format settings, Sign : Unsigned
Codec ID : 1
Codec ID/Hint : Microsoft
Duration : 19mn 30s
Bit rate mode : Constant
Bit rate : 1 536 Kbps
Channel(s) : 2 channels
Sampling rate : 48.0 KHz
Bit depth : 16 bits
Stream size : 214 MiB (17%)
Interleave, duration : 1000 ms (24.99 video frames)

Скриншоты



Неудавшаяся рыбалка/Canned Fishing
Год выпуска: 1929-1938
Страна: США
Жанр: Комедийные короткометражки
Продолжительность: 10:16
Перевод: Профессиональный (двухголосый закадровый) телекомпания Ника ТВ
Русские субтитры: нет
Режиссёр: Гас Мэйнс / Gus Meins, Джеймс Пэрротт / James Parrott и др.
В ролях: Джорж "Спанки" МакФэрланд / George "Spanky" McFarland, Билли "Гречка" Томас / Billie "Buckwheat" Thomas, Карл "Люцерна" Свитцер / Carl "Alfalfa" Switzer, Скотти Беккет / Scotty Beckett и др.
Описание: Эти короткометражки выходили в США с 1922 по 1944 год. Их более двухста, если верить Wikipedia. В каждой - отдельный забавный случай из жизни веселых непоседливых малышей.
Качество: VHSRip
Формат: AVI
Видео кодек: XviD
Аудио кодек: MP3
Видео: 720x576 (4:3), 25 fps, XviD MPEG-4, 5971 Kbps, 0.576 bit/pixel
Аудио: 48 kHz, 1 ch, 1536 Кбит/сек

MI

General
Complete name : D:\Пострелята\2\Canned Fishing.avi
Format : AVI
Format/Info : Audio Video Interleave
File size : 552 MiB
Duration : 10mn 16s
Overall bit rate : 7 515 Kbps
Video
ID : 0
Format : MPEG-4 Visual
Format profile : Advanced Simple@L5
Format settings, BVOP : Yes
Format settings, QPel : No
Format settings, GMC : No warppoints
Format settings, Matrix : Default (H.263)
Muxing mode : Packed bitstream
Codec ID : DIVX
Codec ID/Info : Project Mayo
Codec ID/Hint : DivX 4
Duration : 10mn 16s
Bit rate : 5 971 Kbps
Width : 720 pixels
Height : 576 pixels
Display aspect ratio : 5:4
Frame rate : 25.000 fps
Standard : PAL
Color space : YUV
Chroma subsampling : 4:2:0
Bit depth : 8 bits
Scan type : Progressive
Bits/(Pixel*Frame) : 0.576
Stream size : 439 MiB (79%)
Writing library : XviD 1.2.1 (UTC 2008-12-04)
Audio
Format : PCM
Format settings, Endianness : Little
Format settings, Sign : Unsigned
Codec ID : 1
Codec ID/Hint : Microsoft
Duration : 10mn 16s
Bit rate mode : Constant
Bit rate : 1 536 Kbps
Channel(s) : 2 channels
Sampling rate : 48.0 KHz
Bit depth : 16 bits
Stream size : 113 MiB (20%)
Interleave, duration : 999 ms (24.96 video frames)

Скриншоты



Корми их и плачь/Feed 'em and Weep
Год выпуска: 1929-1938
Страна: США
Жанр: Комедийные короткометражки
Продолжительность: 10:05
Перевод: Профессиональный (двухголосый закадровый) телекомпания Ника ТВ
Русские субтитры: нет
Режиссёр: Гас Мэйнс / Gus Meins, Джеймс Пэрротт / James Parrott и др.
В ролях: Джорж "Спанки" МакФэрланд / George "Spanky" McFarland, Билли "Гречка" Томас / Billie "Buckwheat" Thomas, Карл "Люцерна" Свитцер / Carl "Alfalfa" Switzer, Скотти Беккет / Scotty Beckett и др.
Описание: Эти короткометражки выходили в США с 1922 по 1944 год. Их более двухста, если верить Wikipedia. В каждой - отдельный забавный случай из жизни веселых непоседливых малышей.
Качество: VHSRip
Формат: AVI
Видео кодек: XviD
Аудио кодек: MP3
Видео: 720x576 (4:3), 25 fps, XviD MPEG-4, 5031 Kbps, 0.485 bit/pixel
Аудио: 48 kHz, 1 ch, 1536 Кбит/сек

MI

General
Complete name : D:\Пострелята\2\Feed 'em and Weep.avi
Format : AVI
Format/Info : Audio Video Interleave
File size : 475 MiB
Duration : 10mn 5s
Overall bit rate : 6 575 Kbps
Video
ID : 0
Format : MPEG-4 Visual
Format profile : Advanced Simple@L5
Format settings, BVOP : Yes
Format settings, QPel : No
Format settings, GMC : No warppoints
Format settings, Matrix : Default (H.263)
Muxing mode : Packed bitstream
Codec ID : DIVX
Codec ID/Info : Project Mayo
Codec ID/Hint : DivX 4
Duration : 10mn 5s
Bit rate : 5 031 Kbps
Width : 720 pixels
Height : 576 pixels
Display aspect ratio : 5:4
Frame rate : 25.000 fps
Standard : PAL
Color space : YUV
Chroma subsampling : 4:2:0
Bit depth : 8 bits
Scan type : Progressive
Bits/(Pixel*Frame) : 0.485
Stream size : 363 MiB (77%)
Writing library : XviD 1.2.1 (UTC 2008-12-04)
Audio
Format : PCM
Format settings, Endianness : Little
Format settings, Sign : Unsigned
Codec ID : 1
Codec ID/Hint : Microsoft
Duration : 10mn 5s
Bit rate mode : Constant
Bit rate : 1 536 Kbps
Channel(s) : 2 channels
Sampling rate : 48.0 KHz
Bit depth : 16 bits
Stream size : 111 MiB (23%)
Interleave, duration : 999 ms (24.98 video frames)

Скриншоты

Лети мой воздушный змей/Fly my kite
Год выпуска: 1929-1938
Страна: США
Жанр: Комедийные короткометражки
Продолжительность: 19:41
Перевод: Профессиональный (двухголосый закадровый) телекомпания Ника ТВ
Русские субтитры: нет
Режиссёр: Гас Мэйнс / Gus Meins, Джеймс Пэрротт / James Parrott и др.
В ролях: Джорж "Спанки" МакФэрланд / George "Spanky" McFarland, Билли "Гречка" Томас / Billie "Buckwheat" Thomas, Карл "Люцерна" Свитцер / Carl "Alfalfa" Switzer, Скотти Беккет / Scotty Beckett и др.
Описание: Эти короткометражки выходили в США с 1922 по 1944 год. Их более двухста, если верить Wikipedia. В каждой - отдельный забавный случай из жизни веселых непоседливых малышей.
Качество: VHSRip
Формат: AVI
Видео кодек: XviD
Аудио кодек: MP3
Видео: 720x576 (4:3), 25 fps, XviD MPEG-4, 5585 Kbps, 0.539 bit/pixel
Аудио: 48 kHz, 1 ch, 1536 Кбит/сек

MI

General
Complete name : D:\Пострелята\2\Fly my kite.avi
Format : AVI
Format/Info : Audio Video Interleave
File size : 1 004 MiB
Duration : 19mn 41s
Overall bit rate : 7 128 Kbps
Video
ID : 0
Format : MPEG-4 Visual
Format profile : Advanced Simple@L5
Format settings, BVOP : Yes
Format settings, QPel : No
Format settings, GMC : No warppoints
Format settings, Matrix : Default (H.263)
Codec ID : DIVX
Codec ID/Info : Project Mayo
Codec ID/Hint : DivX 4
Duration : 19mn 41s
Bit rate : 5 585 Kbps
Width : 720 pixels
Height : 576 pixels
Display aspect ratio : 5:4
Frame rate : 25.000 fps
Standard : PAL
Color space : YUV
Chroma subsampling : 4:2:0
Bit depth : 8 bits
Scan type : Progressive
Bits/(Pixel*Frame) : 0.539
Stream size : 787 MiB (78%)
Writing library : XviD 1.2.1 (UTC 2008-12-04)
Audio
Format : PCM
Format settings, Endianness : Little
Format settings, Sign : Unsigned
Codec ID : 1
Codec ID/Hint : Microsoft
Duration : 19mn 41s
Bit rate mode : Constant
Bit rate : 1 536 Kbps
Channel(s) : 2 channels
Sampling rate : 48.0 KHz
Bit depth : 16 bits
Stream size : 216 MiB (22%)
Interleave, duration : 1000 ms (25.00 video frames)

Скриншоты



Футболисты/Football
Год выпуска: 1929-1938
Страна: США
Жанр: Комедийные короткометражки
Продолжительность: 10:00
Перевод: Профессиональный (двухголосый закадровый) телекомпания Ника ТВ
Русские субтитры: нет
Режиссёр: Гас Мэйнс / Gus Meins, Джеймс Пэрротт / James Parrott и др.
В ролях: Джорж "Спанки" МакФэрланд / George "Spanky" McFarland, Билли "Гречка" Томас / Billie "Buckwheat" Thomas, Карл "Люцерна" Свитцер / Carl "Alfalfa" Switzer, Скотти Беккет / Scotty Beckett и др.
Описание: Эти короткометражки выходили в США с 1922 по 1944 год. Их более двухста, если верить Wikipedia. В каждой - отдельный забавный случай из жизни веселых непоседливых малышей.
Качество: VHSRip
Формат: AVI
Видео кодек: XviD
Аудио кодек: MP3
Видео: 720x576 (4:3), 25 fps, XviD MPEG-4, 6303 Kbps, 0.608 bit/pixel
Аудио: 48 kHz, 1 ch, 1536 Кбит/сек

MI

General
Complete name : D:\Пострелята\2\Football.avi
Format : AVI
Format/Info : Audio Video Interleave
File size : 562 MiB
Duration : 10mn 0s
Overall bit rate : 7 849 Kbps
Writing library : VirtualDub build 32706/release
Video
ID : 0
Format : MPEG-4 Visual
Format profile : Advanced Simple@L5
Format settings, BVOP : Yes
Format settings, QPel : No
Format settings, GMC : No warppoints
Format settings, Matrix : Default (H.263)
Muxing mode : Packed bitstream
Codec ID : DIVX
Codec ID/Info : Project Mayo
Codec ID/Hint : DivX 4
Duration : 10mn 0s
Bit rate : 6 303 Kbps
Width : 720 pixels
Height : 576 pixels
Display aspect ratio : 5:4
Frame rate : 25.000 fps
Standard : PAL
Color space : YUV
Chroma subsampling : 4:2:0
Bit depth : 8 bits
Scan type : Progressive
Bits/(Pixel*Frame) : 0.608
Stream size : 451 MiB (80%)
Writing library : XviD 1.2.1 (UTC 2008-12-04)
Audio
Format : PCM
Format settings, Endianness : Little
Format settings, Sign : Unsigned
Codec ID : 1
Codec ID/Hint : Microsoft
Duration : 10mn 0s
Bit rate mode : Constant
Bit rate : 1 536 Kbps
Channel(s) : 2 channels
Sampling rate : 48.0 KHz
Bit depth : 16 bits
Stream size : 110 MiB (20%)
Interleave, duration : 40 ms (1.00 video frame)
Interleave, preload duration : 500 ms

Скриншоты



Уловка молодости/Framing youth
Год выпуска: 1929-1938
Страна: США
Жанр: Комедийные короткометражки
Продолжительность: 10:13
Перевод: Профессиональный (двухголосый закадровый) телекомпания Ника ТВ
Русские субтитры: нет
Режиссёр: Гас Мэйнс / Gus Meins, Джеймс Пэрротт / James Parrott и др.
В ролях: Джорж "Спанки" МакФэрланд / George "Spanky" McFarland, Билли "Гречка" Томас / Billie "Buckwheat" Thomas, Карл "Люцерна" Свитцер / Carl "Alfalfa" Switzer, Скотти Беккет / Scotty Beckett и др.
Описание: Эти короткометражки выходили в США с 1922 по 1944 год. Их более двухста, если верить Wikipedia. В каждой - отдельный забавный случай из жизни веселых непоседливых малышей.
Качество: VHSRip
Формат: AVI
Видео кодек: XviD
Аудио кодек: MP3
Видео: 720x576 (4:3), 25 fps, XviD MPEG-4, 5685 Kbps, 0.548 bit/pixel
Аудио: 48 kHz, 1 ch, 1536 Кбит/сек

MI

General
Complete name : D:\Пострелята\2\Framing youth.avi
Format : AVI
Format/Info : Audio Video Interleave
File size : 528 MiB
Duration : 10mn 13s
Overall bit rate : 7 229 Kbps
Video
ID : 0
Format : MPEG-4 Visual
Format profile : Advanced Simple@L5
Format settings, BVOP : Yes
Format settings, QPel : No
Format settings, GMC : No warppoints
Format settings, Matrix : Default (H.263)
Muxing mode : Packed bitstream
Codec ID : DIVX
Codec ID/Info : Project Mayo
Codec ID/Hint : DivX 4
Duration : 10mn 13s
Bit rate : 5 685 Kbps
Width : 720 pixels
Height : 576 pixels
Display aspect ratio : 5:4
Frame rate : 25.000 fps
Standard : PAL
Color space : YUV
Chroma subsampling : 4:2:0
Bit depth : 8 bits
Scan type : Progressive
Bits/(Pixel*Frame) : 0.548
Stream size : 415 MiB (79%)
Writing library : XviD 1.2.1 (UTC 2008-12-04)
Audio
Format : PCM
Format settings, Endianness : Little
Format settings, Sign : Unsigned
Codec ID : 1
Codec ID/Hint : Microsoft
Duration : 10mn 13s
Bit rate mode : Constant
Bit rate : 1 536 Kbps
Channel(s) : 2 channels
Sampling rate : 48.0 KHz
Bit depth : 16 bits
Stream size : 112 MiB (21%)
Interleave, duration : 998 ms (24.96 video frames)

Скриншоты



Сердца стучат/Hearts are Thumps
Год выпуска: 1929-1938
Страна: США
Жанр: Комедийные короткометражки
Продолжительность: 9:48
Перевод: Профессиональный (двухголосый закадровый) телекомпания Ника ТВ
Русские субтитры: нет
Режиссёр: Гас Мэйнс / Gus Meins, Джеймс Пэрротт / James Parrott и др.
В ролях: Джорж "Спанки" МакФэрланд / George "Spanky" McFarland, Билли "Гречка" Томас / Billie "Buckwheat" Thomas, Карл "Люцерна" Свитцер / Carl "Alfalfa" Switzer, Скотти Беккет / Scotty Beckett и др.
Описание: Эти короткометражки выходили в США с 1922 по 1944 год. Их более двухста, если верить Wikipedia. В каждой - отдельный забавный случай из жизни веселых непоседливых малышей.
Качество: VHSRip
Формат: AVI
Видео кодек: XviD
Аудио кодек: MP3
Видео: 720x576 (4:3), 25 fps, XviD MPEG-4, 5669 Kbps, 0.547 bit/pixel
Аудио: 48 kHz, 1 ch, 1536 Кбит/сек

MI

General
Complete name : D:\Пострелята\3\Hearts are Thumps.avi
Format : AVI
Format/Info : Audio Video Interleave
File size : 506 MiB
Duration : 9mn 48s
Overall bit rate : 7 213 Kbps
Video
ID : 0
Format : MPEG-4 Visual
Format profile : Advanced Simple@L5
Format settings, BVOP : Yes
Format settings, QPel : No
Format settings, GMC : No warppoints
Format settings, Matrix : Default (H.263)
Codec ID : DIVX
Codec ID/Info : Project Mayo
Codec ID/Hint : DivX 4
Duration : 9mn 48s
Bit rate : 5 669 Kbps
Width : 720 pixels
Height : 576 pixels
Display aspect ratio : 5:4
Frame rate : 25.000 fps
Standard : PAL
Color space : YUV
Chroma subsampling : 4:2:0
Bit depth : 8 bits
Scan type : Progressive
Bits/(Pixel*Frame) : 0.547
Stream size : 398 MiB (79%)
Writing library : XviD 1.2.1 (UTC 2008-12-04)
Audio
Format : PCM
Format settings, Endianness : Little
Format settings, Sign : Unsigned
Codec ID : 1
Codec ID/Hint : Microsoft
Duration : 9mn 48s
Bit rate mode : Constant
Bit rate : 1 536 Kbps
Channel(s) : 2 channels
Sampling rate : 48.0 KHz
Bit depth : 16 bits
Stream size : 108 MiB (21%)
Interleave, duration : 999 ms (24.98 video frames)

Скриншоты

Бабушкины помощники/Helping Grandma
Год выпуска: 1929-1938
Страна: США
Жанр: Комедийные короткометражки
Продолжительность: 19:48
Перевод: профессиональный одноголосый закадровый
Русские субтитры: нет
Режиссёр: Гас Мэйнс / Gus Meins, Джеймс Пэрротт / James Parrott и др.
В ролях: Джорж "Спанки" МакФэрланд / George "Spanky" McFarland, Билли "Гречка" Томас / Billie "Buckwheat" Thomas, Карл "Люцерна" Свитцер / Carl "Alfalfa" Switzer, Скотти Беккет / Scotty Beckett и др.
Описание: Эти короткометражки выходили в США с 1922 по 1944 год. Их более двухста, если верить Wikipedia. В каждой - отдельный забавный случай из жизни веселых непоседливых малышей.
Качество: VHSRip
Формат: AVI
Видео кодек: XviD
Аудио кодек: MP3
Видео: 720x576 (4:3), 25 fps, XviD MPEG-4, 7282 Kbps, 0.702 bit/pixel
Аудио: 48 kHz, 1 ch, 1536 Кбит/сек

MI

General
Complete name : D:\Пострелята\3\Helping Grandma.avi
Format : AVI
Format/Info : Audio Video Interleave
Format profile : OpenDML
File size : 1.22 GiB
Duration : 19mn 48s
Overall bit rate : 8 825 Kbps
Video
ID : 0
Format : MPEG-4 Visual
Format profile : Advanced Simple@L5
Format settings, BVOP : Yes
Format settings, QPel : No
Format settings, GMC : No warppoints
Format settings, Matrix : Default (H.263)
Codec ID : DIVX
Codec ID/Info : Project Mayo
Codec ID/Hint : DivX 4
Duration : 19mn 48s
Bit rate : 7 282 Kbps
Width : 720 pixels
Height : 576 pixels
Display aspect ratio : 5:4
Frame rate : 25.000 fps
Standard : PAL
Color space : YUV
Chroma subsampling : 4:2:0
Bit depth : 8 bits
Scan type : Progressive
Bits/(Pixel*Frame) : 0.702
Stream size : 1.01 GiB (83%)
Writing library : XviD 1.2.1 (UTC 2008-12-04)
Audio
Format : PCM
Format settings, Endianness : Little
Format settings, Sign : Unsigned
Codec ID : 1
Codec ID/Hint : Microsoft
Duration : 19mn 48s
Bit rate mode : Constant
Bit rate : 1 536 Kbps
Channel(s) : 2 channels
Sampling rate : 48.0 KHz
Bit depth : 16 bits
Stream size : 218 MiB (17%)
Interleave, duration : 999 ms (24.98 video frames)

Скриншоты



Сыщик ищи вора/Hide and Shriek
Год выпуска: 1929-1938
Страна: США
Жанр: Комедийные короткометражки
Продолжительность: 10:00
Перевод: Профессиональный (двухголосый закадровый) телекомпания Ника ТВ
Русские субтитры: нет
Режиссёр: Гас Мэйнс / Gus Meins, Джеймс Пэрротт / James Parrott и др.
В ролях: Джорж "Спанки" МакФэрланд / George "Spanky" McFarland, Билли "Гречка" Томас / Billie "Buckwheat" Thomas, Карл "Люцерна" Свитцер / Carl "Alfalfa" Switzer, Скотти Беккет / Scotty Beckett и др.
Описание: Эти короткометражки выходили в США с 1922 по 1944 год. Их более двухста, если верить Wikipedia. В каждой - отдельный забавный случай из жизни веселых непоседливых малышей.
Качество: VHSRip
Формат: AVI
Видео кодек: XviD
Аудио кодек: MP3
Видео: 720x576 (4:3), 25 fps, XviD MPEG-4, 5579 Kbps, 0.538 bit/pixel
Аудио: 48 kHz, 1 ch, 1536 Кбит/сек

MI

General
Complete name : D:\Пострелята\3\Hide and Shriek.avi
Format : AVI
Format/Info : Audio Video Interleave
File size : 510 MiB
Duration : 10mn 0s
Overall bit rate : 7 123 Kbps
Video
ID : 0
Format : MPEG-4 Visual
Format profile : Advanced Simple@L5
Format settings, BVOP : Yes
Format settings, QPel : No
Format settings, GMC : No warppoints
Format settings, Matrix : Default (H.263)
Codec ID : DIVX
Codec ID/Info : Project Mayo
Codec ID/Hint : DivX 4
Duration : 10mn 0s
Bit rate : 5 579 Kbps
Width : 720 pixels
Height : 576 pixels
Display aspect ratio : 5:4
Frame rate : 25.000 fps
Standard : PAL
Color space : YUV
Chroma subsampling : 4:2:0
Bit depth : 8 bits
Scan type : Progressive
Bits/(Pixel*Frame) : 0.538
Stream size : 399 MiB (78%)
Writing library : XviD 1.2.1 (UTC 2008-12-04)
Audio
Format : PCM
Format settings, Endianness : Little
Format settings, Sign : Unsigned
Codec ID : 1
Codec ID/Hint : Microsoft
Duration : 10mn 0s
Bit rate mode : Constant
Bit rate : 1 536 Kbps
Channel(s) : 2 channels
Sampling rate : 48.0 KHz
Bit depth : 16 bits
Stream size : 110 MiB (22%)
Interleave, duration : 999 ms (24.99 video frames)

Скриншоты



Ленивые дни/Lazy days
Год выпуска: 1929-1938
Страна: США
Жанр: Комедийные короткометражки
Продолжительность: 19:09
Перевод: Профессиональный (двухголосый закадровый) телекомпания Ника ТВ
Русские субтитры: нет
Режиссёр: Гас Мэйнс / Gus Meins, Джеймс Пэрротт / James Parrott и др.
В ролях: Джорж "Спанки" МакФэрланд / George "Spanky" McFarland, Билли "Гречка" Томас / Billie "Buckwheat" Thomas, Карл "Люцерна" Свитцер / Carl "Alfalfa" Switzer, Скотти Беккет / Scotty Beckett и др.
Описание: Эти короткометражки выходили в США с 1922 по 1944 год. Их более двухста, если верить Wikipedia. В каждой - отдельный забавный случай из жизни веселых непоседливых малышей.
Качество: VHSRip
Формат: AVI
Видео кодек: XviD
Аудио кодек: MP3
Видео: 720x576 (4:3), 25 fps, XviD MPEG-4, 5723 Kbps, 0.552 bit/pixel
Аудио: 48 kHz, 1 ch, 1536 Кбит/сек

MI

General
Complete name : D:\Пострелята\3\Lazy days.avi
Format : AVI
Format/Info : Audio Video Interleave
File size : 996 MiB
Duration : 19mn 9s
Overall bit rate : 7 268 Kbps
Writing library : VirtualDub build 32706/release
Video
ID : 0
Format : MPEG-4 Visual
Format profile : Advanced Simple@L5
Format settings, BVOP : Yes
Format settings, QPel : No
Format settings, GMC : No warppoints
Format settings, Matrix : Default (H.263)
Muxing mode : Packed bitstream
Codec ID : DIVX
Codec ID/Info : Project Mayo
Codec ID/Hint : DivX 4
Duration : 19mn 9s
Bit rate : 5 723 Kbps
Width : 720 pixels
Height : 576 pixels
Display aspect ratio : 5:4
Frame rate : 25.000 fps
Standard : PAL
Color space : YUV
Chroma subsampling : 4:2:0
Bit depth : 8 bits
Scan type : Progressive
Bits/(Pixel*Frame) : 0.552
Stream size : 784 MiB (79%)
Writing library : XviD 1.2.1 (UTC 2008-12-04)
Audio
Format : PCM
Format settings, Endianness : Little
Format settings, Sign : Unsigned
Codec ID : 1
Codec ID/Hint : Microsoft
Duration : 19mn 9s
Bit rate mode : Constant
Bit rate : 1 536 Kbps
Channel(s) : 2 channels
Sampling rate : 48.0 KHz
Bit depth : 16 bits
Stream size : 210 MiB (21%)
Interleave, duration : 40 ms (1.00 video frame)
Interleave, preload duration : 500 ms

Скриншоты



Любовные дела/Love Business
Год выпуска: 1929-1938
Страна: США
Жанр: Комедийные короткометражки
Продолжительность: 19:07
Перевод: Профессиональный (двухголосый закадровый) телекомпания Ника ТВ
Русские субтитры: нет
Режиссёр: Гас Мэйнс / Gus Meins, Джеймс Пэрротт / James Parrott и др.
В ролях: Джорж "Спанки" МакФэрланд / George "Spanky" McFarland, Билли "Гречка" Томас / Billie "Buckwheat" Thomas, Карл "Люцерна" Свитцер / Carl "Alfalfa" Switzer, Скотти Беккет / Scotty Beckett и др.
Описание: Эти короткометражки выходили в США с 1922 по 1944 год. Их более двухста, если верить Wikipedia. В каждой - отдельный забавный случай из жизни веселых непоседливых малышей.
Качество: VHSRip
Формат: AVI
Видео кодек: XviD
Аудио кодек: MP3
Видео: 720x576 (4:3), 25 fps, XviD MPEG-4, 6709 Kbps, 0.647 bit/pixel
Аудио: 48 kHz, 1 ch, 1536 Кбит/сек

MI

General
Complete name : D:\Пострелята\3\Love Business.avi
Format : AVI
Format/Info : Audio Video Interleave
Format profile : OpenDML
File size : 1.10 GiB
Duration : 19mn 7s
Overall bit rate : 8 252 Kbps
Video
ID : 0
Format : MPEG-4 Visual
Format profile : Advanced Simple@L5
Format settings, BVOP : Yes
Format settings, QPel : No
Format settings, GMC : No warppoints
Format settings, Matrix : Default (H.263)
Muxing mode : Packed bitstream
Codec ID : DIVX
Codec ID/Info : Project Mayo
Codec ID/Hint : DivX 4
Duration : 19mn 7s
Bit rate : 6 709 Kbps
Width : 720 pixels
Height : 576 pixels
Display aspect ratio : 5:4
Frame rate : 25.000 fps
Standard : PAL
Color space : YUV
Chroma subsampling : 4:2:0
Bit depth : 8 bits
Scan type : Progressive
Bits/(Pixel*Frame) : 0.647
Stream size : 918 MiB (81%)
Writing library : XviD 1.2.1 (UTC 2008-12-04)
Audio
Format : PCM
Format settings, Endianness : Little
Format settings, Sign : Unsigned
Codec ID : 1
Codec ID/Hint : Microsoft
Duration : 19mn 7s
Bit rate mode : Constant
Bit rate : 1 536 Kbps
Channel(s) : 2 channels
Sampling rate : 48.0 KHz
Bit depth : 16 bits
Stream size : 210 MiB (19%)
Interleave, duration : 999 ms (24.99 video frames)

Скриншоты



Угол удач/Lucky corner
Год выпуска: 1929-1938
Страна: США
Жанр: Комедийные короткометражки
Продолжительность: 15:09
Перевод: Профессиональный (двухголосый закадровый) телекомпания Ника ТВ
Русские субтитры: нет
Режиссёр: Гас Мэйнс / Gus Meins, Джеймс Пэрротт / James Parrott и др.
В ролях: Джорж "Спанки" МакФэрланд / George "Spanky" McFarland, Билли "Гречка" Томас / Billie "Buckwheat" Thomas, Карл "Люцерна" Свитцер / Carl "Alfalfa" Switzer, Скотти Беккет / Scotty Beckett и др.
Описание: Эти короткометражки выходили в США с 1922 по 1944 год. Их более двухста, если верить Wikipedia. В каждой - отдельный забавный случай из жизни веселых непоседливых малышей.
Качество: VHSRip
Формат: AVI
Видео кодек: XviD
Аудио кодек: MP3
Видео: 720x576 (4:3), 25 fps, XviD MPEG-4, 7553 Kbps, 0.728 bit/pixel
Аудио: 48 kHz, 1 ch, 1536 Кбит/сек

MI

General
Complete name : D:\Пострелята\4\Lucky corner.avi
Format : AVI
Format/Info : Audio Video Interleave
File size : 986 MiB
Duration : 15mn 9s
Overall bit rate : 9 097 Kbps
Video
ID : 0
Format : MPEG-4 Visual
Format profile : Advanced Simple@L5
Format settings, BVOP : Yes
Format settings, QPel : No
Format settings, GMC : No warppoints
Format settings, Matrix : Default (H.263)
Codec ID : DIVX
Codec ID/Info : Project Mayo
Codec ID/Hint : DivX 4
Duration : 15mn 9s
Bit rate : 7 553 Kbps
Width : 720 pixels
Height : 576 pixels
Display aspect ratio : 5:4
Frame rate : 25.000 fps
Standard : PAL
Color space : YUV
Chroma subsampling : 4:2:0
Bit depth : 8 bits
Scan type : Progressive
Bits/(Pixel*Frame) : 0.728
Stream size : 819 MiB (83%)
Writing library : XviD 1.2.1 (UTC 2008-12-04)
Audio
Format : PCM
Format settings, Endianness : Little
Format settings, Sign : Unsigned
Codec ID : 1
Codec ID/Hint : Microsoft
Duration : 15mn 9s
Bit rate mode : Constant
Bit rate : 1 536 Kbps
Channel(s) : 2 channels
Sampling rate : 48.0 KHz
Bit depth : 16 bits
Stream size : 166 MiB (17%)
Interleave, duration : 999 ms (24.98 video frames)

Скриншоты



Почта и женжины/Mail and Female
Год выпуска: 1929-1938
Страна: США
Жанр: Комедийные короткометражки
Продолжительность: 10:04
Перевод: Профессиональный (двухголосый закадровый) телекомпания Ника ТВ
Русские субтитры: нет
Режиссёр: Гас Мэйнс / Gus Meins, Джеймс Пэрротт / James Parrott и др.
В ролях: Джорж "Спанки" МакФэрланд / George "Spanky" McFarland, Билли "Гречка" Томас / Billie "Buckwheat" Thomas, Карл "Люцерна" Свитцер / Carl "Alfalfa" Switzer, Скотти Беккет / Scotty Beckett и др.
Описание: Эти короткометражки выходили в США с 1922 по 1944 год. Их более двухста, если верить Wikipedia. В каждой - отдельный забавный случай из жизни веселых непоседливых малышей.
Качество: VHSRip
Формат: AVI
Видео кодек: XviD
Аудио кодек: MP3
Видео: 720x576 (4:3), 25 fps, XviD MPEG-4, 7760 Kbps, 0.748 bit/pixel
Аудио: 48 kHz, 1 ch, 1536 Кбит/сек

MI

General
Complete name : D:\Пострелята\4\Mail and Female.avi
Format : AVI
Format/Info : Audio Video Interleave
File size : 670 MiB
Duration : 10mn 4s
Overall bit rate : 9 304 Kbps
Video
ID : 0
Format : MPEG-4 Visual
Format profile : Advanced Simple@L5
Format settings, BVOP : Yes
Format settings, QPel : No
Format settings, GMC : No warppoints
Format settings, Matrix : Default (H.263)
Muxing mode : Packed bitstream
Codec ID : DIVX
Codec ID/Info : Project Mayo
Codec ID/Hint : DivX 4
Duration : 10mn 4s
Bit rate : 7 760 Kbps
Width : 720 pixels
Height : 576 pixels
Display aspect ratio : 5:4
Frame rate : 25.000 fps
Standard : PAL
Color space : YUV
Chroma subsampling : 4:2:0
Bit depth : 8 bits
Scan type : Progressive
Bits/(Pixel*Frame) : 0.748
Stream size : 559 MiB (83%)
Writing library : XviD 1.2.1 (UTC 2008-12-04)
Audio
Format : PCM
Format settings, Endianness : Little
Format settings, Sign : Unsigned
Codec ID : 1
Codec ID/Hint : Microsoft
Duration : 10mn 4s
Bit rate mode : Constant
Bit rate : 1 536 Kbps
Channel(s) : 2 channels
Sampling rate : 48.0 KHz
Bit depth : 16 bits
Stream size : 111 MiB (17%)
Interleave, duration : 998 ms (24.96 video frames)

Скриншоты



Мамины пиратики/Mama's littel pirates
Год выпуска: 1929-1938
Страна: США
Жанр: Комедийные короткометражки
Продолжительность: 17:17
Перевод: Профессиональный (двухголосый закадровый) телекомпания Ника ТВ
Русские субтитры: нет
Режиссёр: Гас Мэйнс / Gus Meins, Джеймс Пэрротт / James Parrott и др.
В ролях: Джорж "Спанки" МакФэрланд / George "Spanky" McFarland, Билли "Гречка" Томас / Billie "Buckwheat" Thomas, Карл "Люцерна" Свитцер / Carl "Alfalfa" Switzer, Скотти Беккет / Scotty Beckett и др.
Описание: Эти короткометражки выходили в США с 1922 по 1944 год. Их более двухста, если верить Wikipedia. В каждой - отдельный забавный случай из жизни веселых непоседливых малышей.
Качество: VHSRip
Формат: AVI
Видео кодек: XviD
Аудио кодек: MP3
Видео: 720x576 (4:3), 25 fps, XviD MPEG-4, 6209 Kbps, 0.599 bit/pixel
Аудио: 48 kHz, 1 ch, 1536 Кбит/сек

MI

General
Complete name : D:\Пострелята\4\Mama's littel pirates.avi
Format : AVI
Format/Info : Audio Video Interleave
File size : 959 MiB
Duration : 17mn 17s
Overall bit rate : 7 752 Kbps
Video
ID : 0
Format : MPEG-4 Visual
Format profile : Advanced Simple@L5
Format settings, BVOP : Yes
Format settings, QPel : No
Format settings, GMC : No warppoints
Format settings, Matrix : Default (H.263)
Codec ID : DIVX
Codec ID/Info : Project Mayo
Codec ID/Hint : DivX 4
Duration : 17mn 17s
Bit rate : 6 209 Kbps
Width : 720 pixels
Height : 576 pixels
Display aspect ratio : 5:4
Frame rate : 25.000 fps
Standard : PAL
Color space : YUV
Chroma subsampling : 4:2:0
Bit depth : 8 bits
Scan type : Progressive
Bits/(Pixel*Frame) : 0.599
Stream size : 768 MiB (80%)
Writing library : XviD 1.2.1 (UTC 2008-12-04)
Audio
Format : PCM
Format settings, Endianness : Little
Format settings, Sign : Unsigned
Codec ID : 1
Codec ID/Hint : Microsoft
Duration : 17mn 17s
Bit rate mode : Constant
Bit rate : 1 536 Kbps
Channel(s) : 2 channels
Sampling rate : 48.0 KHz
Bit depth : 16 bits
Stream size : 190 MiB (20%)
Interleave, duration : 1000 ms (25.00 video frames)

Скриншоты



Каша с молоком/Mush & Milk
Год выпуска: 1929-1938
Страна: США
Жанр: Комедийные короткометражки
Продолжительность: 17:02
Перевод: Профессиональный (двухголосый закадровый) телекомпания Ника ТВ
Русские субтитры: нет
Режиссёр: Гас Мэйнс / Gus Meins, Джеймс Пэрротт / James Parrott и др.
В ролях: Джорж "Спанки" МакФэрланд / George "Spanky" McFarland, Билли "Гречка" Томас / Billie "Buckwheat" Thomas, Карл "Люцерна" Свитцер / Carl "Alfalfa" Switzer, Скотти Беккет / Scotty Beckett и др.
Описание: Эти короткометражки выходили в США с 1922 по 1944 год. Их более двухста, если верить Wikipedia. В каждой - отдельный забавный случай из жизни веселых непоседливых малышей.
Качество: VHSRip
Формат: AVI
Видео кодек: XviD
Аудио кодек: MP3
Видео: 720x576 (4:3), 25 fps, XviD MPEG-4, 6713 Kbps, 0.647 bit/pixel
Аудио: 48 kHz, 1 ch, 1536 Кбит/сек

MI

General
Complete name : D:\Пострелята\4\Mush & Milk.avi
Format : AVI
Format/Info : Audio Video Interleave
File size : 1 007 MiB
Duration : 17mn 2s
Overall bit rate : 8 259 Kbps
Writing library : VirtualDub build 32706/release
Video
ID : 0
Format : MPEG-4 Visual
Format profile : Advanced Simple@L5
Format settings, BVOP : Yes
Format settings, QPel : No
Format settings, GMC : No warppoints
Format settings, Matrix : Default (H.263)
Codec ID : DIVX
Codec ID/Info : Project Mayo
Codec ID/Hint : DivX 4
Duration : 17mn 2s
Bit rate : 6 713 Kbps
Width : 720 pixels
Height : 576 pixels
Display aspect ratio : 5:4
Frame rate : 25.000 fps
Standard : PAL
Color space : YUV
Chroma subsampling : 4:2:0
Bit depth : 8 bits
Scan type : Progressive
Bits/(Pixel*Frame) : 0.647
Stream size : 819 MiB (81%)
Writing library : XviD 1.2.1 (UTC 2008-12-04)
Audio
Format : PCM
Format settings, Endianness : Little
Format settings, Sign : Unsigned
Codec ID : 1
Codec ID/Hint : Microsoft
Duration : 17mn 2s
Bit rate mode : Constant
Bit rate : 1 536 Kbps
Channel(s) : 2 channels
Sampling rate : 48.0 KHz
Bit depth : 16 bits
Stream size : 187 MiB (19%)
Interleave, duration : 40 ms (1.00 video frame)
Interleave, preload duration : 500 ms

Скриншоты



Развели бабулю
Год выпуска: 1929-1938
Страна: США
Жанр: Комедийные короткометражки
Продолжительность: 15:36
Перевод: Профессиональный (двухголосый закадровый) телекомпания Ника ТВ
Русские субтитры: нет
Режиссёр: Гас Мэйнс / Gus Meins, Джеймс Пэрротт / James Parrott и др.
В ролях: Джорж "Спанки" МакФэрланд / George "Spanky" McFarland, Билли "Гречка" Томас / Billie "Buckwheat" Thomas, Карл "Люцерна" Свитцер / Carl "Alfalfa" Switzer, Скотти Беккет / Scotty Beckett и др.
Описание: Эти короткометражки выходили в США с 1922 по 1944 год. Их более двухста, если верить Wikipedia. В каждой - отдельный забавный случай из жизни веселых непоседливых малышей.
Качество: VHSRip
Формат: AVI
Видео кодек: XviD
Аудио кодек: MP3
Видео: 720x576 (4:3), 25 fps, XviD MPEG-4, 5198 Kbps, 0.501 bit/pixel
Аудио: 48 kHz, 1 ch, 1536 Кбит/сек

MI

General
Complete name : D:\Пострелята\4\Развели бабулю.avi
Format : AVI
Format/Info : Audio Video Interleave
File size : 753 MiB
Duration : 15mn 36s
Overall bit rate : 6 742 Kbps
Video
ID : 0
Format : MPEG-4 Visual
Format profile : Advanced Simple@L5
Format settings, BVOP : Yes
Format settings, QPel : No
Format settings, GMC : No warppoints
Format settings, Matrix : Default (H.263)
Muxing mode : Packed bitstream
Codec ID : DIVX
Codec ID/Info : Project Mayo
Codec ID/Hint : DivX 4
Duration : 15mn 36s
Bit rate : 5 198 Kbps
Width : 720 pixels
Height : 576 pixels
Display aspect ratio : 5:4
Frame rate : 25.000 fps
Standard : PAL
Color space : YUV
Chroma subsampling : 4:2:0
Bit depth : 8 bits
Scan type : Progressive
Bits/(Pixel*Frame) : 0.501
Stream size : 581 MiB (77%)
Writing library : XviD 1.2.1 (UTC 2008-12-04)
Audio
Format : PCM
Format settings, Endianness : Little
Format settings, Sign : Unsigned
Codec ID : 1
Codec ID/Hint : Microsoft
Duration : 15mn 36s
Bit rate mode : Constant
Bit rate : 1 536 Kbps
Channel(s) : 2 channels
Sampling rate : 48.0 KHz
Bit depth : 16 bits
Stream size : 172 MiB (23%)
Interleave, duration : 1000 ms (25.00 video frames)

Скриншоты



Забытые дети/Forgotten Babies
Год выпуска: 1929-1938
Страна: США
Жанр: Комедийные короткометражки
Продолжительность: 17:11
Перевод: Профессиональный (двухголосый закадровый) телекомпания Ника ТВ
Русские субтитры: нет
Режиссёр: Гас Мэйнс / Gus Meins, Джеймс Пэрротт / James Parrott и др.
В ролях: Джорж "Спанки" МакФэрланд / George "Spanky" McFarland, Билли "Гречка" Томас / Billie "Buckwheat" Thomas, Карл "Люцерна" Свитцер / Carl "Alfalfa" Switzer, Скотти Беккет / Scotty Beckett и др.
Описание: Эти короткометражки выходили в США с 1922 по 1944 год. Их более двухста, если верить Wikipedia. В каждой - отдельный забавный случай из жизни веселых непоседливых малышей.
Качество: VHSRip
Формат: AVI
Видео кодек: XviD
Аудио кодек: MP3
Видео: 720x576 (4:3), 25 fps, XviD MPEG-4, 6103 Kbps, 0.589 bit/pixel
Аудио: 48 kHz, 1 ch, 1536 Кбит/сек

MI

General
Complete name : D:\Пострелята\5\Forgotten Babies.avi
Format : AVI
Format/Info : Audio Video Interleave
File size : 940 MiB
Duration : 17mn 11s
Overall bit rate : 7 646 Kbps
Video
ID : 0
Format : MPEG-4 Visual
Format profile : Advanced Simple@L5
Format settings, BVOP : Yes
Format settings, QPel : No
Format settings, GMC : No warppoints
Format settings, Matrix : Default (H.263)
Muxing mode : Packed bitstream
Codec ID : DIVX
Codec ID/Info : Project Mayo
Codec ID/Hint : DivX 4
Duration : 17mn 11s
Bit rate : 6 103 Kbps
Width : 720 pixels
Height : 576 pixels
Display aspect ratio : 5:4
Frame rate : 25.000 fps
Standard : PAL
Color space : YUV
Chroma subsampling : 4:2:0
Bit depth : 8 bits
Scan type : Progressive
Bits/(Pixel*Frame) : 0.589
Stream size : 750 MiB (80%)
Writing library : XviD 1.2.1 (UTC 2008-12-04)
Audio
Format : PCM
Format settings, Endianness : Little
Format settings, Sign : Unsigned
Codec ID : 1
Codec ID/Hint : Microsoft
Duration : 17mn 11s
Bit rate mode : Constant
Bit rate : 1 536 Kbps
Channel(s) : 2 channels
Sampling rate : 48.0 KHz
Bit depth : 16 bits
Stream size : 189 MiB (20%)
Interleave, duration : 999 ms (24.98 video frames)

Скриншоты



Первый раз в первый класс/Readin' & writin'
Год выпуска: 1929-1938
Страна: США
Жанр: Комедийные короткометражки
Продолжительность: 19:39
Перевод: Профессиональный (двухголосый закадровый) телекомпания Ника ТВ
Русские субтитры: нет
Режиссёр: Гас Мэйнс / Gus Meins, Джеймс Пэрротт / James Parrott и др.
В ролях: Джорж "Спанки" МакФэрланд / George "Spanky" McFarland, Билли "Гречка" Томас / Billie "Buckwheat" Thomas, Карл "Люцерна" Свитцер / Carl "Alfalfa" Switzer, Скотти Беккет / Scotty Beckett и др.
Описание: Эти короткометражки выходили в США с 1922 по 1944 год. Их более двухста, если верить Wikipedia. В каждой - отдельный забавный случай из жизни веселых непоседливых малышей.
Качество: VHSRip
Формат: AVI
Видео кодек: XviD
Аудио кодек: MP3
Видео: 720x576 (4:3), 25 fps, XviD MPEG-4, 5404 Kbps, 0.521 bit/pixel
Аудио: 48 kHz, 1 ch, 1536 Кбит/сек

MI

General
Complete name : D:\Пострелята\5\Readin' & writin'.avi
Format : AVI
Format/Info : Audio Video Interleave
File size : 977 MiB
Duration : 19mn 39s
Overall bit rate : 6 948 Kbps
Video
ID : 0
Format : MPEG-4 Visual
Format profile : Advanced Simple@L5
Format settings, BVOP : Yes
Format settings, QPel : No
Format settings, GMC : No warppoints
Format settings, Matrix : Default (H.263)
Muxing mode : Packed bitstream
Codec ID : DIVX
Codec ID/Info : Project Mayo
Codec ID/Hint : DivX 4
Duration : 19mn 39s
Bit rate : 5 404 Kbps
Width : 720 pixels
Height : 576 pixels
Display aspect ratio : 5:4
Frame rate : 25.000 fps
Standard : PAL
Color space : YUV
Chroma subsampling : 4:2:0
Bit depth : 8 bits
Scan type : Progressive
Bits/(Pixel*Frame) : 0.521
Stream size : 760 MiB (78%)
Writing library : XviD 1.2.1 (UTC 2008-12-04)
Audio
Format : PCM
Format settings, Endianness : Little
Format settings, Sign : Unsigned
Codec ID : 1
Codec ID/Hint : Microsoft
Duration : 19mn 39s
Bit rate mode : Constant
Bit rate : 1 536 Kbps
Channel(s) : 2 channels
Sampling rate : 48.0 KHz
Bit depth : 16 bits
Stream size : 216 MiB (22%)
Interleave, duration : 999 ms (24.99 video frames)

Скриншоты



Сумашедший балет/Rushin' ballet
Год выпуска: 1929-1938
Страна: США
Жанр: Комедийные короткометражки
Продолжительность: 10:05
Перевод: Профессиональный (двухголосый закадровый) телекомпания Ника ТВ
Русские субтитры: нет
Режиссёр: Гас Мэйнс / Gus Meins, Джеймс Пэрротт / James Parrott и др.
В ролях: Джорж "Спанки" МакФэрланд / George "Spanky" McFarland, Билли "Гречка" Томас / Billie "Buckwheat" Thomas, Карл "Люцерна" Свитцер / Carl "Alfalfa" Switzer, Скотти Беккет / Scotty Beckett и др.
Описание: Эти короткометражки выходили в США с 1922 по 1944 год. Их более двухста, если верить Wikipedia. В каждой - отдельный забавный случай из жизни веселых непоседливых малышей.
Качество: VHSRip
Формат: AVI
Видео кодек: XviD
Аудио кодек: MP3
Видео: 720x576 (4:3), 25 fps, XviD MPEG-4, 7058 Kbps, 0.681 bit/pixel
Аудио: 48 kHz, 1 ch, 1536 Кбит/сек

MI

General
Complete name : D:\Пострелята\5\Rushin' ballet.avi
Format : AVI
Format/Info : Audio Video Interleave
File size : 620 MiB
Duration : 10mn 5s
Overall bit rate : 8 602 Kbps
Video
ID : 0
Format : MPEG-4 Visual
Format profile : Advanced Simple@L5
Format settings, BVOP : Yes
Format settings, QPel : No
Format settings, GMC : No warppoints
Format settings, Matrix : Default (H.263)
Muxing mode : Packed bitstream
Codec ID : DIVX
Codec ID/Info : Project Mayo
Codec ID/Hint : DivX 4
Duration : 10mn 5s
Bit rate : 7 058 Kbps
Width : 720 pixels
Height : 576 pixels
Display aspect ratio : 5:4
Frame rate : 25.000 fps
Standard : PAL
Color space : YUV
Chroma subsampling : 4:2:0
Bit depth : 8 bits
Scan type : Progressive
Bits/(Pixel*Frame) : 0.681
Stream size : 509 MiB (82%)
Writing library : XviD 1.2.1 (UTC 2008-12-04)
Audio
Format : PCM
Format settings, Endianness : Little
Format settings, Sign : Unsigned
Codec ID : 1
Codec ID/Hint : Microsoft
Duration : 10mn 5s
Bit rate mode : Constant
Bit rate : 1 536 Kbps
Channel(s) : 2 channels
Sampling rate : 48.0 KHz
Bit depth : 16 bits
Stream size : 111 MiB (18%)
Interleave, duration : 998 ms (24.96 video frames)

Скриншоты



Конец занятий/Schools out
Год выпуска: 1929-1938
Страна: США
Жанр: Комедийные короткометражки
Продолжительность: 19:35
Перевод: Профессиональный (двухголосый закадровый) телекомпания Ника ТВ
Русские субтитры: нет
Режиссёр: Гас Мэйнс / Gus Meins, Джеймс Пэрротт / James Parrott и др.
В ролях: Джорж "Спанки" МакФэрланд / George "Spanky" McFarland, Билли "Гречка" Томас / Billie "Buckwheat" Thomas, Карл "Люцерна" Свитцер / Carl "Alfalfa" Switzer, Скотти Беккет / Scotty Beckett и др.
Описание: Эти короткометражки выходили в США с 1922 по 1944 год. Их более двухста, если верить Wikipedia. В каждой - отдельный забавный случай из жизни веселых непоседливых малышей.
Качество: VHSRip
Формат: AVI
Видео кодек: XviD
Аудио кодек: MP3
Видео: 720x576 (4:3), 25 fps, XviD MPEG-4, 5350 Kbps, 0.516 bit/pixel
Аудио: 48 kHz, 1 ch, 1536 Кбит/сек

MI

General
Complete name : D:\Пострелята\5\Schools out.avi
Format : AVI
Format/Info : Audio Video Interleave
File size : 966 MiB
Duration : 19mn 35s
Overall bit rate : 6 896 Kbps
Writing library : VirtualDub build 32706/release
Video
ID : 0
Format : MPEG-4 Visual
Format profile : Advanced Simple@L5
Format settings, BVOP : Yes
Format settings, QPel : No
Format settings, GMC : No warppoints
Format settings, Matrix : Default (H.263)
Muxing mode : Packed bitstream
Codec ID : DIVX
Codec ID/Info : Project Mayo
Codec ID/Hint : DivX 4
Duration : 19mn 35s
Bit rate : 5 350 Kbps
Width : 720 pixels
Height : 576 pixels
Display aspect ratio : 5:4
Frame rate : 25.000 fps
Standard : PAL
Color space : YUV
Chroma subsampling : 4:2:0
Bit depth : 8 bits
Scan type : Progressive
Bits/(Pixel*Frame) : 0.516
Stream size : 750 MiB (78%)
Writing library : XviD 1.2.1 (UTC 2008-12-04)
Audio
Format : PCM
Format settings, Endianness : Little
Format settings, Sign : Unsigned
Codec ID : 1
Codec ID/Hint : Microsoft
Duration : 19mn 35s
Bit rate mode : Constant
Bit rate : 1 536 Kbps
Channel(s) : 2 channels
Sampling rate : 48.0 KHz
Bit depth : 16 bits
Stream size : 215 MiB (22%)
Interleave, duration : 40 ms (1.00 video frame)
Interleave, preload duration : 500 ms

Скриншоты



Разбитые надежды/Shiver my timbers
Год выпуска: 1929-1938
Страна: США
Жанр: Комедийные короткометражки
Продолжительность: 19:52
Перевод: Профессиональный (двухголосый закадровый) телекомпания Ника ТВ
Русские субтитры: нет
Режиссёр: Гас Мэйнс / Gus Meins, Джеймс Пэрротт / James Parrott и др.
В ролях: Джорж "Спанки" МакФэрланд / George "Spanky" McFarland, Билли "Гречка" Томас / Billie "Buckwheat" Thomas, Карл "Люцерна" Свитцер / Carl "Alfalfa" Switzer, Скотти Беккет / Scotty Beckett и др.
Описание: Эти короткометражки выходили в США с 1922 по 1944 год. Их более двухста, если верить Wikipedia. В каждой - отдельный забавный случай из жизни веселых непоседливых малышей.
Качество: VHSRip
Формат: AVI
Видео кодек: XviD
Аудио кодек: MP3
Видео: 720x576 (4:3), 25 fps, XviD MPEG-4, 5310 Kbps, 0.512 bit/pixel
Аудио: 48 kHz, 1 ch, 1536 Кбит/сек

MI

General
Complete name : D:\Пострелята\5\Shiver my timbers.avi
Format : AVI
Format/Info : Audio Video Interleave
File size : 974 MiB
Duration : 19mn 52s
Overall bit rate : 6 856 Kbps
Writing library : VirtualDub build 32706/release
Video
ID : 0
Format : MPEG-4 Visual
Format profile : Advanced Simple@L5
Format settings, BVOP : Yes
Format settings, QPel : No
Format settings, GMC : No warppoints
Format settings, Matrix : Default (H.263)
Muxing mode : Packed bitstream
Codec ID : DIVX
Codec ID/Info : Project Mayo
Codec ID/Hint : DivX 4
Duration : 19mn 52s
Bit rate : 5 310 Kbps
Width : 720 pixels
Height : 576 pixels
Display aspect ratio : 5:4
Frame rate : 25.000 fps
Standard : PAL
Color space : YUV
Chroma subsampling : 4:2:0
Bit depth : 8 bits
Scan type : Progressive
Bits/(Pixel*Frame) : 0.512
Stream size : 755 MiB (77%)
Writing library : XviD 1.2.1 (UTC 2008-12-04)
Audio
Format : PCM
Format settings, Endianness : Little
Format settings, Sign : Unsigned
Codec ID : 1
Codec ID/Hint : Microsoft
Duration : 19mn 52s
Bit rate mode : Constant
Bit rate : 1 536 Kbps
Channel(s) : 2 channels
Sampling rate : 48.0 KHz
Bit depth : 16 bits
Stream size : 218 MiB (22%)
Interleave, duration : 40 ms (1.00 video frame)
Interleave, preload duration : 500 ms

Скриншоты



Жертва обучения/Bored of Education
Год выпуска: 1929-1938
Страна: США
Жанр: Комедийные короткометражки
Продолжительность: 9:29
Перевод: Профессиональный (двухголосый закадровый) телекомпания Ника ТВ
Русские субтитры: нет
Режиссёр: Гас Мэйнс / Gus Meins, Джеймс Пэрротт / James Parrott и др.
В ролях: Джорж "Спанки" МакФэрланд / George "Spanky" McFarland, Билли "Гречка" Томас / Billie "Buckwheat" Thomas, Карл "Люцерна" Свитцер / Carl "Alfalfa" Switzer, Скотти Беккет / Scotty Beckett и др.
Описание: Эти короткометражки выходили в США с 1922 по 1944 год. Их более двухста, если верить Wikipedia. В каждой - отдельный забавный случай из жизни веселых непоседливых малышей.
Качество: VHSRip
Формат: AVI
Видео кодек: XviD
Аудио кодек: MP3
Видео: 720x576 (4:3), 25 fps, XviD MPEG-4, 7471 Kbps, 0.721 bit/pixel
Аудио: 48 kHz, 1 ch, 1536 Кбит/сек

MI

General
Complete name : D:\Пострелята\6\Bored of Education.avi
Format : AVI
Format/Info : Audio Video Interleave
File size : 612 MiB
Duration : 9mn 29s
Overall bit rate : 9 016 Kbps
Video
ID : 0
Format : MPEG-4 Visual
Format profile : Advanced Simple@L5
Format settings, BVOP : Yes
Format settings, QPel : No
Format settings, GMC : No warppoints
Format settings, Matrix : Default (H.263)
Muxing mode : Packed bitstream
Codec ID : DIVX
Codec ID/Info : Project Mayo
Codec ID/Hint : DivX 4
Duration : 9mn 29s
Bit rate : 7 471 Kbps
Width : 720 pixels
Height : 576 pixels
Display aspect ratio : 5:4
Frame rate : 25.000 fps
Standard : PAL
Color space : YUV
Chroma subsampling : 4:2:0
Bit depth : 8 bits
Scan type : Progressive
Bits/(Pixel*Frame) : 0.721
Stream size : 507 MiB (83%)
Writing library : XviD 1.2.1 (UTC 2008-12-04)
Audio
Format : PCM
Format settings, Endianness : Little
Format settings, Sign : Unsigned
Codec ID : 1
Codec ID/Hint : Microsoft
Duration : 9mn 29s
Bit rate mode : Constant
Bit rate : 1 536 Kbps
Channel(s) : 2 channels
Sampling rate : 48.0 KHz
Bit depth : 16 bits
Stream size : 104 MiB (17%)
Interleave, duration : 999 ms (24.98 video frames)

Скриншоты



Мэри и Визер/Mary & Wither
Год выпуска: 1929-1938
Страна: США
Жанр: Комедийные короткометражки
Продолжительность: 20:10
Перевод: Профессиональный (двухголосый закадровый) телекомпания Ника ТВ
Русские субтитры: нет
Режиссёр: Гас Мэйнс / Gus Meins, Джеймс Пэрротт / James Parrott и др.
В ролях: Джорж "Спанки" МакФэрланд / George "Spanky" McFarland, Билли "Гречка" Томас / Billie "Buckwheat" Thomas, Карл "Люцерна" Свитцер / Carl "Alfalfa" Switzer, Скотти Беккет / Scotty Beckett и др.
Описание: Эти короткометражки выходили в США с 1922 по 1944 год. Их более двухста, если верить Wikipedia. В каждой - отдельный забавный случай из жизни веселых непоседливых малышей.
Качество: VHSRip
Формат: AVI
Видео кодек: XviD
Аудио кодек: MP3
Видео: 720x576 (4:3), 25 fps, XviD MPEG-4, 8490 Kbps, 0.819 bit/pixel
Аудио: 48 kHz, 1 ch, 1536 Кбит/сек

MI

General
Complete name : D:\Пострелята\6\Mary & Wither.avi
Format : AVI
Format/Info : Audio Video Interleave
Format profile : OpenDML
File size : 1.41 GiB
Duration : 20mn 10s
Overall bit rate : 10.0 Mbps
Video
ID : 0
Format : MPEG-4 Visual
Format profile : Advanced Simple@L5
Format settings, BVOP : Yes
Format settings, QPel : No
Format settings, GMC : No warppoints
Format settings, Matrix : Default (H.263)
Codec ID : DIVX
Codec ID/Info : Project Mayo
Codec ID/Hint : DivX 4
Duration : 20mn 10s
Bit rate : 8 490 Kbps
Width : 720 pixels
Height : 576 pixels
Display aspect ratio : 5:4
Frame rate : 25.000 fps
Standard : PAL
Color space : YUV
Chroma subsampling : 4:2:0
Bit depth : 8 bits
Scan type : Progressive
Bits/(Pixel*Frame) : 0.819
Stream size : 1.20 GiB (85%)
Writing library : XviD 1.2.1 (UTC 2008-12-04)
Audio
Format : PCM
Format settings, Endianness : Little
Format settings, Sign : Unsigned
Codec ID : 1
Codec ID/Hint : Microsoft
Duration : 20mn 10s
Bit rate mode : Constant
Bit rate : 1 536 Kbps
Channel(s) : 2 channels
Sampling rate : 48.0 KHz
Bit depth : 16 bits
Stream size : 222 MiB (15%)
Interleave, duration : 999 ms (24.98 video frames)

Скриншоты



Разговор нивзначай/Small Talk
Год выпуска: 1929-1938
Страна: США
Жанр: Комедийные короткометражки
Продолжительность: 23:34
Перевод: Профессиональный (двухголосый закадровый) телекомпания Ника ТВ
Русские субтитры: нет
Режиссёр: Гас Мэйнс / Gus Meins, Джеймс Пэрротт / James Parrott и др.
В ролях: Джорж "Спанки" МакФэрланд / George "Spanky" McFarland, Билли "Гречка" Томас / Billie "Buckwheat" Thomas, Карл "Люцерна" Свитцер / Carl "Alfalfa" Switzer, Скотти Беккет / Scotty Beckett и др.
Описание: Эти короткометражки выходили в США с 1922 по 1944 год. Их более двухста, если верить Wikipedia. В каждой - отдельный забавный случай из жизни веселых непоседливых малышей.
Качество: VHSRip
Формат: AVI
Видео кодек: XviD
Аудио кодек: MP3
Видео: 720x576 (4:3), 25 fps, XviD MPEG-4, 6807 Kbps, 0.657 bit/pixel
Аудио: 48 kHz, 1 ch, 1536 Кбит/сек

MI

General
Complete name : D:\Пострелята\6\Small Talk.avi
Format : AVI
Format/Info : Audio Video Interleave
Format profile : OpenDML
File size : 1.38 GiB
Duration : 23mn 34s
Overall bit rate : 8 349 Kbps
Video
ID : 0
Format : MPEG-4 Visual
Format profile : Advanced Simple@L5
Format settings, BVOP : Yes
Format settings, QPel : No
Format settings, GMC : No warppoints
Format settings, Matrix : Default (H.263)
Muxing mode : Packed bitstream
Codec ID : DIVX
Codec ID/Info : Project Mayo
Codec ID/Hint : DivX 4
Duration : 23mn 34s
Bit rate : 6 807 Kbps
Width : 720 pixels
Height : 576 pixels
Display aspect ratio : 5:4
Frame rate : 25.000 fps
Standard : PAL
Color space : YUV
Chroma subsampling : 4:2:0
Bit depth : 8 bits
Scan type : Progressive
Bits/(Pixel*Frame) : 0.657
Stream size : 1.12 GiB (82%)
Writing library : XviD 1.2.1 (UTC 2008-12-04)
Audio
Format : PCM
Format settings, Endianness : Little
Format settings, Sign : Unsigned
Codec ID : 1
Codec ID/Hint : Microsoft
Duration : 23mn 34s
Bit rate mode : Constant
Bit rate : 1 536 Kbps
Channel(s) : 2 channels
Sampling rate : 48.0 KHz
Bit depth : 16 bits
Stream size : 259 MiB (18%)
Interleave, duration : 1000 ms (24.99 video frames)

Скриншоты



Маленькие пожарники/The Fourth Alarm
Год выпуска: 1929-1938
Страна: США
Жанр: Комедийные короткометражки
Продолжительность: 16:46
Перевод: Профессиональный (двухголосый закадровый) телекомпания Ника ТВ
Русские субтитры: нет
Режиссёр: Гас Мэйнс / Gus Meins, Джеймс Пэрротт / James Parrott и др.
В ролях: Джорж "Спанки" МакФэрланд / George "Spanky" McFarland, Билли "Гречка" Томас / Billie "Buckwheat" Thomas, Карл "Люцерна" Свитцер / Carl "Alfalfa" Switzer, Скотти Беккет / Scotty Beckett и др.
Описание: Эти короткометражки выходили в США с 1922 по 1944 год. Их более двухста, если верить Wikipedia. В каждой - отдельный забавный случай из жизни веселых непоседливых малышей.
Качество: VHSRip
Формат: AVI
Видео кодек: XviD
Аудио кодек: MP3
Видео: 720x576 (4:3), 25 fps, XviD MPEG-4, 5707 Kbps, 0.550 bit/pixel
Аудио: 48 kHz, 1 ch, 1536 Кбит/сек

MI

General
Complete name : D:\Пострелята\6\The Fourth Alarm.avi
Format : AVI
Format/Info : Audio Video Interleave
File size : 870 MiB
Duration : 16mn 46s
Overall bit rate : 7 250 Kbps
Video
ID : 0
Format : MPEG-4 Visual
Format profile : Advanced Simple@L5
Format settings, BVOP : Yes
Format settings, QPel : No
Format settings, GMC : No warppoints
Format settings, Matrix : Default (H.263)
Muxing mode : Packed bitstream
Codec ID : DIVX
Codec ID/Info : Project Mayo
Codec ID/Hint : DivX 4
Duration : 16mn 46s
Bit rate : 5 707 Kbps
Width : 720 pixels
Height : 576 pixels
Display aspect ratio : 5:4
Frame rate : 25.000 fps
Standard : PAL
Color space : YUV
Chroma subsampling : 4:2:0
Bit depth : 8 bits
Scan type : Progressive
Bits/(Pixel*Frame) : 0.550
Stream size : 685 MiB (79%)
Writing library : XviD 1.2.1 (UTC 2008-12-04)
Audio
Format : PCM
Format settings, Endianness : Little
Format settings, Sign : Unsigned
Codec ID : 1
Codec ID/Hint : Microsoft
Duration : 16mn 46s
Bit rate mode : Constant
Bit rate : 1 536 Kbps
Channel(s) : 2 channels
Sampling rate : 48.0 KHz
Bit depth : 16 bits
Stream size : 184 MiB (21%)
Interleave, duration : 1000 ms (25.00 video frames)

Скриншоты



Игра в приведения/Spook-Spoofing
Год выпуска: 1929-1938
Страна: США
Жанр: Комедийные короткометражки
Продолжительность: 22:28
Перевод: Профессиональный (двухголосый закадровый) телекомпания Ника ТВ
Русские субтитры: нет
Режиссёр: Гас Мэйнс / Gus Meins, Джеймс Пэрротт / James Parrott и др.
В ролях: Джорж "Спанки" МакФэрланд / George "Spanky" McFarland, Билли "Гречка" Томас / Billie "Buckwheat" Thomas, Карл "Люцерна" Свитцер / Carl "Alfalfa" Switzer, Скотти Беккет / Scotty Beckett и др.
Описание: Эти короткометражки выходили в США с 1922 по 1944 год. Их более двухста, если верить Wikipedia. В каждой - отдельный забавный случай из жизни веселых непоседливых малышей.
Качество: VHSRip
Формат: AVI
Видео кодек: XviD
Аудио кодек: MP3
Видео: 720x576 (4:3), 25 fps, XviD MPEG-4, 6150 Kbps, 0.593 bit/pixel
Аудио: 48 kHz, 1 ch, 1536 Кбит/сек

MI

General
Complete name : D:\Пострелята\7\Spook-Spoofing.avi
Format : AVI
Format/Info : Audio Video Interleave
Format profile : OpenDML
File size : 1.21 GiB
Duration : 22mn 28s
Overall bit rate : 7 693 Kbps
Video
ID : 0
Format : MPEG-4 Visual
Format profile : Advanced Simple@L5
Format settings, BVOP : Yes
Format settings, QPel : No
Format settings, GMC : No warppoints
Format settings, Matrix : Default (H.263)
Muxing mode : Packed bitstream
Codec ID : DIVX
Codec ID/Info : Project Mayo
Codec ID/Hint : DivX 4
Duration : 22mn 28s
Bit rate : 6 150 Kbps
Width : 720 pixels
Height : 576 pixels
Display aspect ratio : 5:4
Frame rate : 25.000 fps
Standard : PAL
Color space : YUV
Chroma subsampling : 4:2:0
Bit depth : 8 bits
Scan type : Progressive
Bits/(Pixel*Frame) : 0.593
Stream size : 989 MiB (80%)
Writing library : XviD 1.2.1 (UTC 2008-12-04)
Audio
Format : PCM
Format settings, Endianness : Little
Format settings, Sign : Unsigned
Codec ID : 1
Codec ID/Hint : Microsoft
Duration : 22mn 28s
Bit rate mode : Constant
Bit rate : 1 536 Kbps
Channel(s) : 2 channels
Sampling rate : 48.0 KHz
Bit depth : 16 bits
Stream size : 247 MiB (20%)
Interleave, duration : 1000 ms (24.99 video frames)

Скриншоты



Любимая учительница/Teacher's Beau
Год выпуска: 1929-1938
Страна: США
Жанр: Комедийные короткометражки
Продолжительность: 19:11
Перевод: Профессиональный (двухголосый закадровый) телекомпания Ника ТВ
Русские субтитры: нет
Режиссёр: Гас Мэйнс / Gus Meins, Джеймс Пэрротт / James Parrott и др.
В ролях: Джорж "Спанки" МакФэрланд / George "Spanky" McFarland, Билли "Гречка" Томас / Billie "Buckwheat" Thomas, Карл "Люцерна" Свитцер / Carl "Alfalfa" Switzer, Скотти Беккет / Scotty Beckett и др.
Описание: Эти короткометражки выходили в США с 1922 по 1944 год. Их более двухста, если верить Wikipedia. В каждой - отдельный забавный случай из жизни веселых непоседливых малышей.
Качество: VHSRip
Формат: AVI
Видео кодек: XviD
Аудио кодек: MP3
Видео: 720x576 (4:3), 25 fps, XviD MPEG-4, 6142 Kbps, 0.592 bit/pixel
Аудио: 48 kHz, 1 ch, 1536 Кбит/сек

MI

General
Complete name : D:\Пострелята\7\Teacher's Beau.avi
Format : AVI
Format/Info : Audio Video Interleave
Format profile : OpenDML
File size : 1.03 GiB
Duration : 19mn 11s
Overall bit rate : 7 686 Kbps
Video
ID : 0
Format : MPEG-4 Visual
Format profile : Advanced Simple@L5
Format settings, BVOP : Yes
Format settings, QPel : No
Format settings, GMC : No warppoints
Format settings, Matrix : Default (H.263)
Muxing mode : Packed bitstream
Codec ID : DIVX
Codec ID/Info : Project Mayo
Codec ID/Hint : DivX 4
Duration : 19mn 11s
Bit rate : 6 142 Kbps
Width : 720 pixels
Height : 576 pixels
Display aspect ratio : 5:4
Frame rate : 25.000 fps
Standard : PAL
Color space : YUV
Chroma subsampling : 4:2:0
Bit depth : 8 bits
Scan type : Progressive
Bits/(Pixel*Frame) : 0.592
Stream size : 843 MiB (80%)
Writing library : XviD 1.2.1 (UTC 2008-12-04)
Audio
Format : PCM
Format settings, Endianness : Little
Format settings, Sign : Unsigned
Codec ID : 1
Codec ID/Hint : Microsoft
Duration : 19mn 11s
Bit rate mode : Constant
Bit rate : 1 536 Kbps
Channel(s) : 2 channels
Sampling rate : 48.0 KHz
Bit depth : 16 bits
Stream size : 211 MiB (20%)
Interleave, duration : 1000 ms (24.99 video frames)

Скриншоты



Первые семь лет/The first seven years
Год выпуска: 1929-1938
Страна: США
Жанр: Комедийные короткометражки
Продолжительность: 19:38
Перевод: Профессиональный (двухголосый закадровый) телекомпания Ника ТВ
Русские субтитры: нет
Режиссёр: Гас Мэйнс / Gus Meins, Джеймс Пэрротт / James Parrott и др.
В ролях: Джорж "Спанки" МакФэрланд / George "Spanky" McFarland, Билли "Гречка" Томас / Billie "Buckwheat" Thomas, Карл "Люцерна" Свитцер / Carl "Alfalfa" Switzer, Скотти Беккет / Scotty Beckett и др.
Описание: Эти короткометражки выходили в США с 1922 по 1944 год. Их более двухста, если верить Wikipedia. В каждой - отдельный забавный случай из жизни веселых непоседливых малышей.
Качество: VHSRip
Формат: AVI
Видео кодек: XviD
Аудио кодек: MP3
Видео: 720x576 (4:3), 25 fps, XviD MPEG-4, 5884 Kbps, 0.568 bit/pixel
Аудио: 48 kHz, 1 ch, 1536 Кбит/сек

MI

General
Complete name : D:\Пострелята\7\The first seven years.avi
Format : AVI
Format/Info : Audio Video Interleave
Format profile : OpenDML
File size : 1.02 GiB
Duration : 19mn 38s
Overall bit rate : 7 427 Kbps
Video
ID : 0
Format : MPEG-4 Visual
Format profile : Advanced Simple@L5
Format settings, BVOP : Yes
Format settings, QPel : No
Format settings, GMC : No warppoints
Format settings, Matrix : Default (H.263)
Codec ID : DIVX
Codec ID/Info : Project Mayo
Codec ID/Hint : DivX 4
Duration : 19mn 38s
Bit rate : 5 884 Kbps
Width : 720 pixels
Height : 576 pixels
Display aspect ratio : 5:4
Frame rate : 25.000 fps
Standard : PAL
Color space : YUV
Chroma subsampling : 4:2:0
Bit depth : 8 bits
Scan type : Progressive
Bits/(Pixel*Frame) : 0.568
Stream size : 826 MiB (79%)
Writing library : XviD 1.2.1 (UTC 2008-12-04)
Audio
Format : PCM
Format settings, Endianness : Little
Format settings, Sign : Unsigned
Codec ID : 1
Codec ID/Hint : Microsoft
Duration : 19mn 38s
Bit rate mode : Constant
Bit rate : 1 536 Kbps
Channel(s) : 2 channels
Sampling rate : 48.0 KHz
Bit depth : 16 bits
Stream size : 216 MiB (21%)
Interleave, duration : 999 ms (24.98 video frames)

Скриншоты



Два Юнца/Two Too Young
Год выпуска: 1929-1938
Страна: США
Жанр: Комедийные короткометражки
Продолжительность: 9:17
Перевод: Профессиональный (двухголосый закадровый) телекомпания Ника ТВ
Русские субтитры: нет
Режиссёр: Гас Мэйнс / Gus Meins, Джеймс Пэрротт / James Parrott и др.
В ролях: Джорж "Спанки" МакФэрланд / George "Spanky" McFarland, Билли "Гречка" Томас / Billie "Buckwheat" Thomas, Карл "Люцерна" Свитцер / Carl "Alfalfa" Switzer, Скотти Беккет / Scotty Beckett и др.
Описание: Эти короткометражки выходили в США с 1922 по 1944 год. Их более двухста, если верить Wikipedia. В каждой - отдельный забавный случай из жизни веселых непоседливых малышей.
Качество: VHSRip
Формат: AVI
Видео кодек: XviD
Аудио кодек: MP3
Видео: 720x576 (4:3), 25 fps, XviD MPEG-4, 6815 Kbps, 0.657 bit/pixel
Аудио: 48 kHz, 1 ch, 1536 Кбит/сек

MI

General
Complete name : D:\Пострелята\7\Two Too Young.avi
Format : AVI
Format/Info : Audio Video Interleave
File size : 556 MiB
Duration : 9mn 17s
Overall bit rate : 8 360 Kbps
Video
ID : 0
Format : MPEG-4 Visual
Format profile : Advanced Simple@L5
Format settings, BVOP : Yes
Format settings, QPel : No
Format settings, GMC : No warppoints
Format settings, Matrix : Default (H.263)
Muxing mode : Packed bitstream
Codec ID : DIVX
Codec ID/Info : Project Mayo
Codec ID/Hint : DivX 4
Duration : 9mn 17s
Bit rate : 6 815 Kbps
Width : 720 pixels
Height : 576 pixels
Display aspect ratio : 5:4
Frame rate : 25.000 fps
Standard : PAL
Color space : YUV
Chroma subsampling : 4:2:0
Bit depth : 8 bits
Scan type : Progressive
Bits/(Pixel*Frame) : 0.657
Stream size : 453 MiB (82%)
Writing library : XviD 1.2.1 (UTC 2008-12-04)
Audio
Format : PCM
Format settings, Endianness : Little
Format settings, Sign : Unsigned
Codec ID : 1
Codec ID/Hint : Microsoft
Duration : 9mn 17s
Bit rate mode : Constant
Bit rate : 1 536 Kbps
Channel(s) : 2 channels
Sampling rate : 48.0 KHz
Bit depth : 16 bits
Stream size : 102 MiB (18%)
Interleave, duration : 1000 ms (25.00 video frames)

Скриншоты


[URL=http://radikal.ru/F/s010.radikal.ru/i313/1011/d1/20a2b

_________________
Показать сообщения:    

Текущее время: Сегодня 08:59

Часовой пояс: GMT



Вы не можете начинать темы
Вы не можете отвечать на сообщения
Вы не можете редактировать свои сообщения
Вы не можете удалять свои сообщения
Вы не можете голосовать в опросах
Вы не можете прикреплять файлы к сообщениям
Вы не можете скачивать файлы