Важное объявление!
У Нас Все раздачи мультитрекерные, при нуле пиров в релизах, можете смело вставать на закачку!
Статистика раздачи
Размер:     |    Зарегистрирован:     |    Скачан:     |   
Нет
 
     
 
 
Автор Сообщение

HUNTER

Стаж:
5 лет
Сообщений:
67968

Репутация: 101

[+] [-]
Вне форума [Профиль] [ЛС]

Постоялый двор шестой степени счастья / The Inn of the Sixth Happiness-
Год выпуска: 1958
Страна: США
Жанр: драма, биография
Продолжительность: 02:37:51
Перевод: Профессиональный (многоголосый, закадровый) Двадцатый Век Фокс СНГ
Оригинальная аудиодорожка: Английская
Cубтитры: Руские, английские (полные, для слабослышащих), греческие-Режиссер: Марк Робсон / Mark Robson
В ролях: Ингрид Бергман, Курд Юргенс, Роберт Донат, Майкл Дэвид, Эфин Сейлер, Рональд Сквайр, Мултри Келсалл, Ричард Уоттис, Питер Чонг, Тсаи Чин-Описание:
По роману Алана Бургесса «Маленькая женщина».
Фильм основан на истории жизни Гледис Эйлуорд, современной святой, чья неутолимая жажда творить добро заставила ее пройти полсвета. Всегда мечтавшая о миссионерской деятельности, горничная из Англии отправляется в Китай и открывает там приют для усталых и голодных погонщиков мулов, бродящих удаленными горными тропами.
Постепенно ей удается преодолеть враждебность со стороны местного населения, она завоевывает сердце евразийского полковника и обращает в христианство властного мандарина. Но главный ее подвиг — спасение сотни бездомных детей, которых она уводит с захваченной территории в безопасное место во время вторжения в Китай японцев.-За дорожку спасибо Euscorpius (RDA).
| IMDb | Сэмпл-Качество: BDRip 720p (DON)
Контейнер: MKV
Видео: 1280x544 (2.35:1), 23.976 fps, 9753 kbps
Аудио 1: Русский AC3 2.0, 48 kHz, 192 kbps
Аудио 2: Английский AC3 4.0, 48 kHz, 640 kbps
Аудио 3: Английский AAC 2.0, 48 kHz, 131 kbps — Комментарии
Формат субтитров: softsub (SRT)
СкриншотыMI
nfo
Info
RUNTIME.......: 2h 37mn
SIZE..........: 11.6 GiB
VIDEO CODEC...: x264, CRF 17.7, L4.1
FRAMERATE.....: 23.976 fps
BITRATE.......: 9 561 Kbps
RESOLUTION....: 1280x544
AUDIO ........: English 4.0ch AC-3 @ 640 Kbps
AUDIO 1.......: English 2.0ch AAC (Commentary - with Nick Redman, Aubrey Solomon and Donald Spoto)
SUBTITLES.....: English,English(SDH),Greek
CHAPTERS/NAMED: Yes / Yes
SOURCE........: The Inn of the Sixth Happiness 1958 1080p Blu-ray AVC DTS-HD MA 4.0(thanks!)
x264 info
profile High, level 4.1
x264 [info]: frame I:1603 Avg QP:18.07 size:158253
x264 [info]: frame P:42800 Avg QP:19.30 size: 77528
x264 [info]: frame B:182667 Avg QP:20.78 size: 43654
x264 [info]: consecutive B-frames: 1.1% 1.1% 3.3% 10.5% 12.9% 63.3% 5.9% 1.1% 0.9%
x264 [info]: kb/s:9753.00
encoded 227070 frames, 2.755 fps, 9753.00 kb/s, 11011 MB
General
Unique ID : 219768104264355182159787304419353036517 (0xA555CC1AB2EEF91B8AED59A3757E06E5)
Complete name : The.Inn.of.the.Sixth.Happiness.1958.720p.BluRay.x264-DON.mkv
Format : Matroska
Format version : Version 2
File size : 11.8 GiB
Duration : 2h 37mn
Overall bit rate : 10.7 Mbps
Movie name : The Inn of the Sixth Happiness (1958) – RuTracker
Encoded date : UTC 2014-06-06 19:09:49
Writing application : mkvmerge v6.1.0 ('Old Devil') built on Mar 2 2013 14:32:37
Writing library : libebml v1.3.0 + libmatroska v1.4.0
Attachment : Yes
Video
ID : 1
Format : AVC
Format/Info : Advanced Video Codec
Format profile : High@L4.1
Format settings, CABAC : Yes
Format settings, ReFrames : 12 frames
Codec ID : V_MPEG4/ISO/AVC
Duration : 2h 37mn
Width : 1 280 pixels
Height : 544 pixels
Display aspect ratio : 2.35:1
Frame rate mode : Constant
Frame rate : 23.976 fps
Color space : YUV
Chroma subsampling : 4:2:0
Bit depth : 8 bits
Scan type : Progressive
Title : The.Inn.of.the.Sixth.Happiness.1958.720p.BluRay.DD4.0.x264-DON
Writing library : x264 core 142 r2409+42 04be48a tMod [8-bit@all X86_64]
Encoding settings : cabac=1 / ref=12 / deblock=1:-3:-3 / analyse=0x3:0x133 / me=tesa / subme=10 / psy=1 / fade_compensate=0.00 / psy_rd=1.10:0.00 / mixed_ref=1 / me_range=32 / chroma_me=1 / trellis=2 / 8x8dct=1 / cqm=0 / deadzone=21,11 / fast_pskip=0 / chroma_qp_offset=-2 / threads=12 / lookahead_threads=2 / sliced_threads=0 / nr=0 / decimate=1 / interlaced=0 / bluray_compat=0 / constrained_intra=0 / fgo=0 / bframes=8 / b_pyramid=2 / b_adapt=2 / b_bias=0 / direct=3 / weightb=1 / open_gop=0 / weightp=2 / keyint=241 / keyint_min=23 / scenecut=40 / intra_refresh=0 / rc_lookahead=60 / rc=crf / mbtree=0 / crf=17.7000 / qcomp=0.70 / qpmin=0:0:0 / qpmax=69:69:69 / qpstep=4 / vbv_maxrate=50000 / vbv_bufsize=62500 / crf_max=0.0 / nal_hrd=none / filler=0 / ip_ratio=1.30 / pb_ratio=1.20 / aq=1:0.80 / aq-sensitivity=10.00 / aq-factor=1.00:1.00:1.00 / aq2=0 / aq3=0
Language : English
Default : Yes
Forced : No
Audio #1
ID : 2
Format : AC-3
Format/Info : Audio Coding 3
Mode extension : CM (complete main)
Format settings, Endianness : Big
Codec ID : A_AC3
Duration : 2h 37mn
Bit rate mode : Constant
Bit rate : 192 Kbps
Channel(s) : 2 channels
Channel positions : Front: L R
Sampling rate : 48.0 KHz
Bit depth : 16 bits
Compression mode : Lossy
Stream size : 217 MiB (2%)
Title : MVO – Двадцатый Век Фокс СНГ
Language : Russian
Default : Yes
Forced : No
Audio #2
ID : 3
Format : AC-3
Format/Info : Audio Coding 3
Mode extension : CM (complete main)
Format settings, Endianness : Big
Codec ID : A_AC3
Duration : 2h 37mn
Bit rate mode : Constant
Bit rate : 640 Kbps
Channel(s) : 4 channels
Channel positions : Front: L C R, Back: C
Sampling rate : 48.0 KHz
Bit depth : 16 bits
Compression mode : Lossy
Stream size : 723 MiB (6%)
Title : Original
Language : English
Default : No
Forced : No
Audio #3
ID : 4
Format : AAC
Format/Info : Advanced Audio Codec
Format profile : LC
Codec ID : A_AAC
Duration : 2h 37mn
Channel(s) : 2 channels
Channel positions : Front: L R
Sampling rate : 48.0 KHz
Compression mode : Lossy
Title : Commentary - with Nick Redman, Aubrey Solomon and Donald Spoto
Language : English
Default : No
Forced : No
Text #1
ID : 5
Format : UTF-8
Codec ID : S_TEXT/UTF8
Codec ID/Info : UTF-8 Plain Text
Title : R5
Language : Russian
Default : No
Forced : No
Text #2
ID : 6
Format : UTF-8
Codec ID : S_TEXT/UTF8
Codec ID/Info : UTF-8 Plain Text
Language : English
Default : No
Forced : No
Text #3
ID : 7
Format : UTF-8
Codec ID : S_TEXT/UTF8
Codec ID/Info : UTF-8 Plain Text
Title : SDH
Language : English
Default : No
Forced : No
Text #4
ID : 8
Format : UTF-8
Codec ID : S_TEXT/UTF8
Codec ID/Info : UTF-8 Plain Text
Language : Greek
Default : No
Forced : No
Menu
00:00:00.000 : en:Main Titles
00:03:20.700 : en:The China Missionary Society
00:06:45.071 : en:The Route to China
00:09:34.407 : en:A Maid
00:12:57.026 : en:A Missing Book
00:15:41.149 : en:Going to China
00:27:02.663 : en:Yang Cheng
00:35:31.129 : en:The Inn of the Sixth Happiness
00:46:42.383 : en:An Accident
00:53:34.420 : en:The Foot Inspector
01:02:08.725 : en:Work and Contentment
01:17:07.456 : en:News of War
01:22:00.332 : en:The Bandits
01:26:15.545 : en:Sixpence
01:34:59.360 : en:Dinner with the Mandarin
01:41:58.738 : en:War
02:03:07.880 : en:The Caretaker
02:08:00.673 : en:The Journey of 100 Children
02:17:27.406 : en:Many Hardships
02:33:09.097 : en:Journey's End

_________________
Показать сообщения:    

Текущее время: Сегодня 16:45

Часовой пояс: GMT



Вы не можете начинать темы
Вы не можете отвечать на сообщения
Вы не можете редактировать свои сообщения
Вы не можете удалять свои сообщения
Вы не можете голосовать в опросах
Вы не можете прикреплять файлы к сообщениям
Вы не можете скачивать файлы