Важное объявление!
У Нас Все раздачи мультитрекерные, при нуле пиров в релизах, можете смело вставать на закачку!
 
Автор Сообщение

HUNTER

Стаж:
4 года 7 месяцев
Сообщений:
61449

Репутация: 101

[+] [-]
Вне форума [Профиль] [ЛС]

--Послезавтра / The Day After Tomorrow«Where Will You Be?»-
-Год выпуска: 2004
Страна: США
Жанр: фантастика, триллер, приключения
Продолжительность: 02:03:40
Перевод №1: Профессиональный (дублированный)
Перевод №2: Профессиональный (двухголосый закадровый, Tycoon)
Перевод №3: Профессиональный (двухголосый закадровый, П.Гланц и И.Королева)
Перевод №4: Авторский (одноголосый закадровый, Е.Рудой)
Перевод №5: Авторский (одноголосый закадровый, В.Королев)
Перевод №6: Профессиональный (украинский дублированный)
Субтитры: Русские, Английские-Режиссер: Роланд Эммерих / Roland Emmerich
Сценарий: Роланд Эммерих / Roland Emmerich, Джеффри Начманофф / Jeffrey Nachmanoff
Продюсер: Роланд Эммерих / Roland Emmerich, Марк Гордон / Mark Gordon, Уте Эммерих / Ute Emmerich и др.
Оператор: Юли Штайгер / Ueli Steiger
Композитор: Харальд Клозер / Harald Kloser
В ролях: Деннис Куэйд (Jack Hall), Джейк Джилленхол (Sam Hall), Эмми Россам (Laura Chapman), Дэш Майок (Jason Evans), Джей О. Сэндерс (Frank Harris), Села Уорд (Dr. Lucy Hall), Остин Николс (J.D.), Эрджей Смит (Brian Parks), Тэмлин Томита (Janet Tokada), Саша Ройз (Parker), Иэн Холм (Terry Rapson), Nassim Sharara (Saudi Delegate)-Описание: Земля уверенно движется навстречу глобальной экологической катастрофе: в одной части света все живое погибает от засухи, в другой - разбушевавшаяся водная стихия сносит города.
Близость катастрофы вынуждает ученого-климатолога, пытающегося найти способ остановить глобальное потепление, отправиться на поиски пропавшего сына в Нью-Йорк, в котором наступил новый ледниковый период...
-
Доп. информация: Исходник Послезавтра / The Day After Tomorrow (Роланд Эммерих / Roland Emmerich) [2004, США, фантастика, боевик, триллер, приключения, BDRemux 1080p] DUB + DVO Tycoon + Sub rus + original eng-Качество: Blu-ray Rip 1080p
Формат: MKV
Видео: MPEG-4 AVC (H264), High Profile 4.1, 1920x816, 23.976 fps, ~16000 kbps avg, bit/(pixel*frame) 0.426
Аудио №1: Russian: 48 kHz, DTS, 3/2 (L,C,R,l,r) + LFE ch, ~768.00 kbps avg //дубляж
Аудио №2: Russian: 48 kHz, AC3, 3/2 (L,C,R,l,r) + LFE ch, ~448.00 kbps avg //двухголосый закадровый (Tycoon)
Аудио №3: Russian: 48 kHz, DTS, 3/2 (L,C,R,l,r) + LFE ch, ~1510.00 kbps avg //двухголосый (закадровый, П.Гланц и И.Королева)
Аудио №4: Russian: 48 kHz, DTS, 3/2 (L,C,R,l,r) + LFE ch, ~1510.00 kbps avg //одноголосый (закадровый, Е.Рудой)
Аудио №5: Russian: 48 kHz, DTS, 3/2 (L,C,R,l,r) + LFE ch, ~755.00 kbps avg //одноголосый (закадровый, В.Королев)
Аудио №6: Ukranian: 48 kHz, AC3, 2.0 (L,R) ch, ~320.00 kbps avg //дубляж
Аудио №7: English: 48 kHz, DTS, 3/2 (L,C,R,l,r) + LFE ch, ~1510.00 kbps avg //оригинал
Аудио №8: English: 48 kHz, AC3, 2.0 (L,R) ch, ~224.00 kbps avg //Комментарии создателей фильма - режиссера Р. Эммериха и продюсера М. Гордона
Аудио №9: English: 48 kHz, AC3, 2.0 (L,R) ch, ~224.00 kbps avg //Комментарии создателей фильма - соавтора сценария Д. Нахманоффа, оператора У. Стайгера, монтажера Д. Бреннера и художника Б. Чюсида
Субтитры: Russian (Captions), Russian (Blu-Ray), Russian, English (Softsub SRT)
Навигация по главам: есть-

Скриншоты

Rip vs CtrlHD



Скриншоты

Blu-Ray vs Rip






MediaInfo

D:\The Day After Tomorrow [Послезавтра] (2004) 1920х816 BDRip RusEngSubsChpt.mkv
General
Unique ID : 252346537497138519615796281353399974502 (0xBDD82CDFFD769B98AE134964F4483A66)
Complete name : D:\The Day After Tomorrow [Послезавтра] (2004) 1920х816 BDRip RusEngSubsChpt.mkv
Format : Matroska
Format version : Version 4 / Version 2
File size : 20.1 GiB
Duration : 2h 3mn
Overall bit rate : 23.3 Mbps
Movie name : -=RbM=-
Encoded date : UTC 2014-02-22 13:32:16
Writing application : mkvmerge v6.6.0 ('The Edge Of The In Between') built on Dec 1 2013 17:55:00
Writing library : libebml v1.3.0 + libmatroska v1.4.1
Video #1
ID : 1
Format : AVC
Format/Info : Advanced Video Codec
Format profile : High@L4.1
Format settings, CABAC : Yes
Format settings, ReFrames : 5 frames
Codec ID : V_MPEG4/ISO/AVC
Duration : 2h 3mn
Bit rate : 16.0 Mbps
Width : 1 920 pixels
Height : 816 pixels
Display aspect ratio : 2.35:1
Frame rate mode : Constant
Frame rate : 23.976 fps
Color space : YUV
Chroma subsampling : 4:2:0
Bit depth : 8 bits
Scan type : Progressive
Bits/(Pixel*Frame) : 0.426
Stream size : 13.4 GiB (67%)
Title : 62% of the original
Writing library : x264 core 142 r2389+41 02cb608 tMod [8-bit@all X86_64]
Encoding settings : cabac=1 / ref=5 / deblock=1:-3:-2 / analyse=0x3:0x133 / me=umh / subme=11 / psy=1 / fade_compensate=0.00 / psy_rd=1.00:0.00 / mixed_ref=1 / me_range=32 / chroma_me=1 / trellis=2 / 8x8dct=1 / cqm=0 / deadzone=21,11 / fast_pskip=0 / chroma_qp_offset=-2 / threads=12 / lookahead_threads=3 / sliced_threads=0 / nr=0 / decimate=0 / interlaced=0 / bluray_compat=0 / constrained_intra=0 / fgo=0 / bframes=10 / b_pyramid=2 / b_adapt=2 / b_bias=0 / direct=3 / weightb=1 / open_gop=0 / weightp=2 / keyint=250 / keyint_min=23 / scenecut=40 / intra_refresh=0 / rc_lookahead=80 / rc=2pass / mbtree=1 / bitrate=16000 / ratetol=1.0 / qcomp=0.70 / qpmin=0:0:0 / qpmax=69:69:69 / qpstep=4 / cplxblur=20.0 / qblur=0.5 / ip_ratio=1.40 / aq=4:0.60 / aq-sensitivity=10.00 / aq-factor=1.00:1.00:1.00 / aq2=0 / aq3=0 / zones=166300,177912,q=40
Language : English
Default : Yes
Forced : No
Audio #2
ID : 2
Format : DTS
Format/Info : Digital Theater Systems
Mode : 16
Format settings, Endianness : Big
Codec ID : A_DTS
Duration : 2h 3mn
Bit rate mode : Constant
Bit rate : 768 Kbps
Channel(s) : 6 channels
Channel positions : Front: L C R, Side: L R, LFE
Sampling rate : 48.0 KHz
Bit depth : 24 bits
Compression mode : Lossy
Stream size : 679 MiB (3%)
Title : Dub DTS 5.1ch 768kbps (Blu-Ray)
Language : Russian
Default : Yes
Forced : No
Audio #3
ID : 3
Format : AC-3
Format/Info : Audio Coding 3
Mode extension : CM (complete main)
Format settings, Endianness : Big
Codec ID : A_AC3
Duration : 2h 3mn
Bit rate mode : Constant
Bit rate : 448 Kbps
Channel(s) : 6 channels
Channel positions : Front: L C R, Side: L R, LFE
Sampling rate : 48.0 KHz
Bit depth : 16 bits
Compression mode : Lossy
Stream size : 396 MiB (2%)
Title : DVO AC3 5.1ch 448kbps (Tycoon)
Language : Russian
Default : No
Forced : No
Audio #4
ID : 4
Format : DTS
Format/Info : Digital Theater Systems
Mode : 16
Format settings, Endianness : Big
Codec ID : A_DTS
Duration : 2h 3mn
Bit rate mode : Constant
Bit rate : 1 509 Kbps
Channel(s) : 6 channels
Channel positions : Front: L C R, Side: L R, LFE
Sampling rate : 48.0 KHz
Bit depth : 24 bits
Compression mode : Lossy
Stream size : 1.30 GiB (6%)
Title : DVO DTS 5.1ch 1510kbps (П.Гланц и И.Королева)
Language : Russian
Default : No
Forced : No
Audio #5
ID : 5
Format : DTS
Format/Info : Digital Theater Systems
Mode : 16
Format settings, Endianness : Big
Codec ID : A_DTS
Duration : 2h 3mn
Bit rate mode : Constant
Bit rate : 1 509 Kbps
Channel(s) : 6 channels
Channel positions : Front: L C R, Side: L R, LFE
Sampling rate : 48.0 KHz
Bit depth : 24 bits
Compression mode : Lossy
Stream size : 1.30 GiB (6%)
Title : AVO DTS 5.1ch 1510kbps (Е.Рудой)
Language : Russian
Default : No
Forced : No
Audio #6
ID : 6
Format : DTS
Format/Info : Digital Theater Systems
Mode : 16
Format settings, Endianness : Big
Codec ID : A_DTS
Duration : 2h 3mn
Bit rate mode : Constant
Bit rate : 755 Kbps
Channel(s) : 6 channels
Channel positions : Front: L C R, Side: L R, LFE
Sampling rate : 48.0 KHz
Bit depth : 24 bits
Compression mode : Lossy
Stream size : 667 MiB (3%)
Title : AVO DTS 5.1ch 755kbps (В.Королев)
Language : Russian
Default : No
Forced : No
Audio #7
ID : 7
Format : AC-3
Format/Info : Audio Coding 3
Mode extension : CM (complete main)
Format settings, Endianness : Big
Codec ID : A_AC3
Duration : 2h 3mn
Bit rate mode : Constant
Bit rate : 320 Kbps
Channel(s) : 2 channels
Channel positions : Front: L R
Sampling rate : 48.0 KHz
Bit depth : 16 bits
Compression mode : Lossy
Stream size : 283 MiB (1%)
Title : Dub AC3 2.0ch 320kbps
Language : Ukrainian
Default : No
Forced : No
Audio #8
ID : 8
Format : DTS
Format/Info : Digital Theater Systems
Mode : 16
Format settings, Endianness : Big
Codec ID : A_DTS
Duration : 2h 3mn
Bit rate mode : Constant
Bit rate : 1 509 Kbps
Channel(s) : 6 channels
Channel positions : Front: L C R, Side: L R, LFE
Sampling rate : 48.0 KHz
Bit depth : 24 bits
Compression mode : Lossy
Stream size : 1.30 GiB (6%)
Title : Original DTS 5.1ch 1510kbps
Language : English
Default : No
Forced : No
Audio #9
ID : 9
Format : AC-3
Format/Info : Audio Coding 3
Mode extension : CM (complete main)
Format settings, Endianness : Big
Codec ID : A_AC3
Duration : 2h 3mn
Bit rate mode : Constant
Bit rate : 224 Kbps
Channel(s) : 2 channels
Channel positions : Front: L R
Sampling rate : 48.0 KHz
Bit depth : 16 bits
Compression mode : Lossy
Stream size : 198 MiB (1%)
Title : Original AC3 2.0ch 224kbps (commentary by R.Emmerich, M.Gordon)
Language : English
Default : No
Forced : No
Audio #10
ID : 10
Format : AC-3
Format/Info : Audio Coding 3
Mode extension : CM (complete main)
Format settings, Endianness : Big
Codec ID : A_AC3
Duration : 2h 3mn
Bit rate mode : Constant
Bit rate : 224 Kbps
Channel(s) : 2 channels
Channel positions : Front: L R
Sampling rate : 48.0 KHz
Bit depth : 16 bits
Compression mode : Lossy
Stream size : 198 MiB (1%)
Title : Original AC3 2.0ch 224kbps (commentary by J.Nachmanoff, U.Steiger, D.Brenner, B.Chusid)
Language : English
Default : No
Forced : No
Text #11
ID : 11
Format : UTF-8
Codec ID : S_TEXT/UTF8
Codec ID/Info : UTF-8 Plain Text
Title : captions
Language : Russian
Default : Yes
Forced : No
Text #12
ID : 12
Format : UTF-8
Codec ID : S_TEXT/UTF8
Codec ID/Info : UTF-8 Plain Text
Title : Blu-Ray
Language : Russian
Default : No
Forced : No
Text #13
ID : 13
Format : UTF-8
Codec ID : S_TEXT/UTF8
Codec ID/Info : UTF-8 Plain Text
Language : Russian
Default : No
Forced : No
Text #14
ID : 14
Format : UTF-8
Codec ID : S_TEXT/UTF8
Codec ID/Info : UTF-8 Plain Text
Language : English
Default : No
Forced : No
Menu
00:00:00.000 : en:Main Titles
00:03:07.562 : en:Giving Way
00:06:16.793 : en:U.N. Conference
00:09:17.181 : en:A Big Drop
00:12:04.432 : en:Old Wounds
00:15:42.733 : en:A Bumpy Ride
00:18:37.699 : en:Bad Omens
00:20:46.662 : en:The Decathlon
00:22:41.401 : en:Too Fast
00:24:13.326 : en:L.a.
00:31:22.922 : en:Worst Case Scenario
00:38:26.304 : en:Mountain of Data
00:42:14.949 : en:New York City
00:48:08.010 : en:Wall of Water
00:51:15.655 : en:The New Ice Age
00:54:13.416 : en:Contact
01:03:00.151 : en:Presidential Briefing
01:06:22.353 : en:A Toast
01:08:09.835 : en:Life or Death
01:11:26.615 : en:North and South
01:13:40.249 : en:Hard Choices
01:17:46.995 : en:Warming Up
01:20:52.430 : en:A Good Friend Gone
01:24:08.001 : en:The Age of Reason
01:27:57.647 : en:Passing the Torch
01:29:35.870 : en:The View From Space
01:32:18.616 : en:Aboard the Ship
01:38:42.958 : en:Eye of the Storm
01:41:34.463 : en:Promises to Keep
01:46:57.911 : en:The Last Mile
01:50:41.676 : en:Moving Forward
01:55:38.598 : en:End Titles

x264 log

x264 [info]: frame I:1044 Avg QP:14.44 size:211284 PSNR Mean Y:49.84 U:51.80 V:52.65 Avg:50.32 Global:47.02
x264 [info]: frame P:47219 Avg QP:18.53 size:105289 PSNR Mean Y:46.90 U:50.59 V:51.93 Avg:47.60 Global:44.41
x264 [info]: frame B:129649 Avg QP:17.46 size: 74315 PSNR Mean Y:47.17 U:49.38 V:50.70 Avg:47.78 Global:46.23
x264 [info]: consecutive B-frames: 3.3% 6.8% 23.8% 15.0% 11.5% 34.1% 3.9% 0.5% 0.4% 0.2% 0.4%
x264 [info]: mb I I16..4: 3.9% 82.7% 13.3%
x264 [info]: mb P I16..4: 1.1% 25.5% 1.5% P16..4: 24.3% 26.0% 7.9% 1.4% 0.1% skip:12.2%
x264 [info]: mb B I16..4: 0.2% 8.3% 0.3% B16..8: 30.9% 20.0% 4.1% direct:21.0% skip:15.3% L0:41.2% L1:35.9% BI:22.9%
x264 [info]: 8x8 transform intra:92.1% inter:43.4%
x264 [info]: direct mvs spatial:96.6% temporal:3.4%
x264 [info]: coded y,uvDC,uvAC intra: 95.7% 92.6% 85.1% inter: 60.1% 47.1% 23.1%
x264 [info]: i16 v,h,dc,p: 33% 14% 9% 45%
x264 [info]: i8 v,h,dc,ddl,ddr,vr,hd,vl,hu: 10% 9% 12% 10% 12% 11% 11% 12% 14%
x264 [info]: i4 v,h,dc,ddl,ddr,vr,hd,vl,hu: 11% 8% 8% 9% 14% 12% 13% 11% 14%
x264 [info]: i8c dc,h,v,p: 53% 17% 14% 16%
x264 [info]: Weighted P-Frames: Y:4.9% UV:3.4%
x264 [info]: ref P L0: 49.2% 8.5% 22.0% 9.4% 8.2% 2.6% 0.2%
x264 [info]: ref B L0: 76.0% 17.9% 4.7% 1.5%
x264 [info]: ref B L1: 91.6% 8.4%
x264 [info]: SSIM Mean Y:0.9863955 (18.663db)
x264 [info]: PSNR Mean Y:47.113 U:49.716 V:51.040 Avg:47.744 Global:45.669 kb/s:15985.12
x264 [info]: encoded 177912 frames, 5.107 fps, 15985.12 kb/s, 14140 MB
x264 [info]: ended at Fri Feb 21 17:34:24 2014
x264 [info]: encoding duration 9:40:39

_________________
Показать сообщения:    

Текущее время: Сегодня 22:19

Часовой пояс: GMT



Вы не можете начинать темы
Вы не можете отвечать на сообщения
Вы не можете редактировать свои сообщения
Вы не можете удалять свои сообщения
Вы не можете голосовать в опросах
Вы не можете прикреплять файлы к сообщениям
Вы не можете скачивать файлы
Наши партнеры: интернет магазин Ивановского трикотажа textilla.ru