Важное объявление!
У Нас Все раздачи мультитрекерные, при нуле пиров в релизах, можете смело вставать на закачку!
Статистика раздачи
Размер:     |    Зарегистрирован:     |    Скачан:     |   
Нет
 
     
 
 
Автор Сообщение

HUNTER

Стаж:
5 лет
Сообщений:
67958

Репутация: 101

[+] [-]
Вне форума [Профиль] [ЛС]

Последователи / The Following-
Год выпуска: 2013
Страна: США
Жанр: триллер, драма, криминал
Продолжительность: 45 мин
Перевод: Профессиональный двухголосый закадровый (Кубик в Кубе)-В ролях:
• Кевин Бейкон, Джеймс Пьюрфой, Шон Эшмор, Кайл Кэтлетт, Натали Зиа, Энни Пэррис, Нико Торторелла и другие..
Режиссёр:
• Маркос Сига-Описание:
Главный антигерой - Джо Кэрол, бывший профессор колледжа, который преподавал работы Эдгара По и параллельно убивал молодых женщин во славу романтизма, пока не был пойман. С того момента он провел множество часов за компьютером в тюремной библиотеке, создавая социальную сеть из убийц-подражателей, которые исполняют любую его команду. Сериал начинается с того момента, когда Кэрол спасается от смертной казни с помощью своих последователей, и ФБР, в свою очередь, приглашает Райана Харди, который схватил Джо в первый раз, для консультирования в деле его поимки.-Качество: WEB-DLRip
Формат: .avi
Видео кодек: XviD
Аудио кодек: MP3
Видео: 624x352 (1.77:1), 23.976 fps, XviD build 65 ~990 kbps avg, 0.24 bit/pixel
Аудио #1: 48 kHz, MPEG Layer 3, 2 ch, ~224.00 kbps avg [Russian]
Аудио #2: 48 kHz, MPEG Layer 3, 2 ch, ~224.00 kbps avg [English]- -

MediaInfo

General
Format : AVI
Format/Info : Audio Video Interleave
File size : 458 MiB
Duration : 42mn 39s
Overall bit rate : 1 500 Kbps
Writing application : VirtualDubMod 1.5.10.2 (build 2540/release)
Writing library : VirtualDubMod build 2540/release
Video
ID : 0
Format : MPEG-4 Visual
Format profile : Advanced Simple@L5
Format settings, BVOP : 1
Format settings, QPel : No
Format settings, GMC : No warppoints
Format settings, Matrix : Default (H.263)
Codec ID : XVID
Codec ID/Hint : XviD
Duration : 42mn 39s
Bit rate : 999 Kbps
Width : 624 pixels
Height : 352 pixels
Display aspect ratio : 16:9
Frame rate : 23.976 fps
Color space : YUV
Chroma subsampling : 4:2:0
Bit depth : 8 bits
Scan type : Progressive
Compression mode : Lossy
Bits/(Pixel*Frame) : 0.197
Stream size : 317 MiB (69%)
Writing library : XviD 65
Audio #1
ID : 1
Format : MPEG Audio
Format version : Version 1
Format profile : Layer 3
Codec ID : 55
Codec ID/Hint : MP3
Duration : 42mn 39s
Bit rate mode : Constant
Bit rate : 224 Kbps
Channel(s) : 2 channels
Sampling rate : 48.0 KHz
Compression mode : Lossy
Stream size : 68.3 MiB (15%)
Alignment : Aligned on interleaves
Interleave, duration : 42 ms (1.00 video frame)
Interleave, preload duration : 504 ms
Audio #2
ID : 2
Format : MPEG Audio
Format version : Version 1
Format profile : Layer 3
Mode : Joint stereo
Codec ID : 55
Codec ID/Hint : MP3
Duration : 42mn 39s
Bit rate mode : Constant
Bit rate : 224 Kbps
Channel(s) : 2 channels
Sampling rate : 48.0 KHz
Compression mode : Lossy
Stream size : 68.3 MiB (15%)
Alignment : Aligned on interleaves
Interleave, duration : 42 ms (1.00 video frame)
Interleave, preload duration : 504 ms
Writing library : LAME3.99r
Encoding settings : -m j -V 4 -q 2 -lowpass 19.4 -b 224
-

Скриншоты

-

_________________
Показать сообщения:    

Текущее время: Сегодня 22:55

Часовой пояс: GMT



Вы не можете начинать темы
Вы не можете отвечать на сообщения
Вы не можете редактировать свои сообщения
Вы не можете удалять свои сообщения
Вы не можете голосовать в опросах
Вы не можете прикреплять файлы к сообщениям
Вы не можете скачивать файлы