Последняя схватка в Ланг Мэй / Глаз орла 3 / Last Stand at Lang Mei / Eye of the Eagle 3 (III) (Сирио Сантьяго / Cirio H. Santiago) [1989, Филиппины, США, военный боевик, warsploitation, DVD5 (Custom)] AVO (Дольский) + Original Eng :: Ивановский Торрент трекер
Важное объявление!
У Нас Все раздачи мультитрекерные, при нуле пиров в релизах, можете смело вставать на закачку!
Статистика раздачи
Размер:     |    Зарегистрирован:     |    Скачан:     |   
Нет
 
     
 
 
Автор Сообщение

HUNTER

Стаж:
4 года 11 месяцев
Сообщений:
66054

Репутация: 101

[+] [-]
Вне форума [Профиль] [ЛС]

Последняя схватка в Ланг Мэй / Глаз орла 3 / Last Stand at Lang Mei / Eye of the Eagle 3 (III)
Страна: Филиппины, США
Жанр: военный боевик, warsploitation
Год выпуска: 1989
Продолжительность: 01:30:36
Перевод: Авторский (одноголосый закадровый) Дольский
Cубтитры: нет
Оригинальная аудиодорожка: английский
Режиссер: Сирио Сантьяго / Cirio H. Santiago
В ролях: Фредерик Бейли, Мэрилин Батиста, Рамон Д’Сальва, Карл Франклин, Джуни Гамбоа, Тоничи Фруктуосо
Описание: Типичный представитель военной эксплуатационки от Сирио Сантьяго - много пальбы, взрывов, кучка американцев пачками кладёт вьетов. Для любителей warsploitation. Очень похоже на "Осаду базы Глория"..
Доп. информация: Диск из собственной коллекции.
Бонусы: Трейлеры
Сэмпл: http://sendfile.su/1133859
Тип релиза: DVD5 (Custom)
Контейнер: DVD-Video
Видео: NTSC 4:3 (720x480) VBR
Аудио: Russian (Dolby AC3, 192 Kbps, 2 ch)
Аудио 2: English (Dolby AC3, 192 Kbps, 2 ch)

DVDInfo

Size: 3.96 Gb ( 4 157 332 KBytes ) - DVD-5
Enabled regions: 1, 2, 3, 4, 5, 6, 7, 8
VTS_01 :
Play Length: 01:30:36
Video: NTSC 4:3 (720x480) VBR
Audio:
Russian (Dolby AC3, 2 ch)
English (Dolby AC3, 2 ch)
VTS_02 :
Play Length: 00:01:46
Video: NTSC 4:3 (720x480) VBR
Audio:
English (Dolby AC3, 2 ch)
VTS_03 :
Play Length: 00:01:42
Video: NTSC 4:3 (720x480) VBR
Audio:
English (Dolby AC3, 2 ch)
VTS_04 :
Play Length: 00:01:33
Video: NTSC 4:3 (720x480) VBR
Audio:
English (Dolby AC3, 2 ch)
VTS_05 :
Play Length: 00:01:35
Video: NTSC 4:3 (720x480) VBR
Audio:
English (Dolby AC3, 2 ch)
Menu Video:
NTSC 4:3 (720x480) VBR
Menu Audio:
Not specified (Dolby AC3, 2 ch)
Menu Subtitles:
Not specified
Menu English Language Unit :
Root Menu

MediaInfo

General
Complete name : K:\Eye of the Eagle 3_1989\VIDEO_TS\VTS_01_1.VOB
Format : MPEG-PS
File size : 1 024 MiB
Duration : 23mn 29s
Overall bit rate mode : Variable
Overall bit rate : 6 096 Kbps
Video
ID : 224 (0xE0)
Format : MPEG Video
Format version : Version 2
Format profile : Main@Main
Format settings, BVOP : Yes
Format settings, Matrix : Default
Format settings, GOP : M=3, N=13
Duration : 23mn 29s
Bit rate mode : Variable
Bit rate : 5 590 Kbps
Maximum bit rate : 7 400 Kbps
Width : 720 pixels
Height : 480 pixels
Display aspect ratio : 4:3
Frame rate : 29.970 fps
Standard : NTSC
Color space : YUV
Chroma subsampling : 4:2:0
Bit depth : 8 bits
Scan type : Progressive
Scan order : Top Field First
Compression mode : Lossy
Bits/(Pixel*Frame) : 0.540
Stream size : 939 MiB (92%)
Color primaries : BT.601 NTSC
Transfer characteristics : BT.601
Matrix coefficients : BT.601
Audio #1
ID : 189 (0xBD)-128 (0x80)
Format : AC-3
Format/Info : Audio Coding 3
Mode extension : CM (complete main)
Format settings, Endianness : Big
Muxing mode : DVD-Video
Duration : 23mn 28s
Bit rate mode : Constant
Bit rate : 192 Kbps
Channel(s) : 2 channels
Channel positions : Front: L R
Sampling rate : 48.0 KHz
Bit depth : 16 bits
Compression mode : Lossy
Stream size : 32.2 MiB (3%)
Audio #2
ID : 189 (0xBD)-129 (0x81)
Format : AC-3
Format/Info : Audio Coding 3
Mode extension : CM (complete main)
Format settings, Endianness : Big
Muxing mode : DVD-Video
Duration : 23mn 28s
Bit rate mode : Constant
Bit rate : 192 Kbps
Channel(s) : 2 channels
Channel positions : Front: L R
Sampling rate : 48.0 KHz
Bit depth : 16 bits
Compression mode : Lossy
Stream size : 32.2 MiB (3%)
Menu

Постеры и обложка

Скриншоты меню

Скриншоты


_________________

ginio

Стаж:
1 год 9 месяцев
Сообщений:
2
Вне форума [Профиль] [ЛС]

Здравствуйте.
Почему не идет раздача ? Вроде как сид есть а скорость стоит на 0КБс ?
Откройте канал что бы началась раздача !
Показать сообщения:    

Текущее время: Сегодня 08:56

Часовой пояс: GMT



Вы не можете начинать темы
Вы не можете отвечать на сообщения
Вы не можете редактировать свои сообщения
Вы не можете удалять свои сообщения
Вы не можете голосовать в опросах
Вы не можете прикреплять файлы к сообщениям
Вы не можете скачивать файлы