Ивановский Торрент трекер
Яндекс.Погода
 

[Цитировать]
HUNTER

-Последний час / Zero Hour--
Год выпуска: 2013
Выпущено: США, ABC Studios
Жанр: Триллер, драма, детектив, приключения
Продолжительность: 00:42:08
Сезон: 1
Серия: 1 из ???
Количество серий в сезоне: ???
Перевод: Профессиональный (многоголосый)[BaibaKo]--Режиссер: Стивен ДеПол, Билл Джирхарт, Пьер Морель--В ролях: Энтони Эдвардс, Кармен Эджого, Скотт Майкл Фостер, Эддисон Тимлин, Джасинда Бэррет, Микаэл Нюквист, Генри Келемен, Кен Люн, Клаудия МакЛэйн, Амир Арисон--Описание: Энтузиаст-издатель журнала о паранормальном «Современный скептик» Хэнк Галлистон потратил свою карьеру, следуя за подсказками, разоблачая мифы и раскрывая заговоры. Признанный помешанным на сверхъестественном, он руководствуется девизом «Логика — это компас». Но когда его красивая жена Лейла похищена из своего магазина антикварных часов, Хэнк втягивается в одну из самых интригующих тайн в истории человечества, охватывающую весь мир и прошлые столетия. Карта сокровищ спрятана внутри одних из часов его жены, и то, к чему она приведет, может вызвать катастрофические последствия. Теперь Хэнк должен расшифровать символы и раскрыть тайны карты, но так, чтобы ответы не попали в плохие руки — руки человека, которого они называют Белым Винсентом. С двумя юными союзниками Рэйчел и Эрроном, а также привлекательным агентом ФБР Беккой Райли, Хэнк поведет их на захватывающую гонку на время, чтобы найти жену и спасти человечество.---- ----Качество: WEBRip
Формат: AVI
Видео кодек: XviD
Аудио кодек: AC3
Видео: 640x352 (1.82:1), 23.976 fps, XviD build 46 ~991 kbps avg, 0.18 bit/pixel
Аудио 1: 48 kHz, AC3 Dolby Digital, 2/0 (L,R) ch, ~192.00 kbps avg - Многоголосный [BaibaKo]
Аудио 2: английский 48 kHz, AC3 Dolby Digital, 2/0 (L,R) ch, ~192.00 kbps avg-

MediaInfo

E:\INTERNET\Zero.Hour.s01e01.WEBRip.XviD.Rus.Eng.avi
General
Complete name : E:\INTERNET\Zero.Hour.s01e01.WEBRip.XviD.Rus.Eng.avi
Format : AVI
Format/Info : Audio Video Interleave
File size : 401 MiB
Duration : 42mn 8s
Overall bit rate : 1 330 Kbps
Movie name : Zero_Hour-S01E01-Strike
Writing application : VirtualDubModRus 1.5.10.2 (build 2542/release)
Writing library : VirtualDubMod build 2542/release
Video #0
ID : 0
Format : MPEG-4 Visual
Format profile : Simple@L3
Format settings, BVOP : No
Format settings, QPel : No
Format settings, GMC : No warppoints
Format settings, Matrix : Default (H.263)
Codec ID : XVID
Codec ID/Hint : XviD
Duration : 42mn 8s
Bit rate : 993 Kbps
Width : 640 pixels
Height : 352 pixels
Display aspect ratio : 16:9
Frame rate : 23.976 fps
Color space : YUV
Chroma subsampling : 4:2:0
Bit depth : 8 bits
Scan type : Progressive
Compression mode : Lossy
Bits/(Pixel*Frame) : 0.184
Stream size : 299 MiB (75%)
Writing library : XviD 1.1.2 (UTC 2006-11-01)
Audio #1
ID : 1
Format : AC-3
Format/Info : Audio Coding 3
Mode extension : CM (complete main)
Format settings, Endianness : Big
Codec ID : 2000
Duration : 42mn 8s
Bit rate mode : Constant
Bit rate : 192 Kbps
Channel(s) : 2 channels
Channel positions : Front: L R
Sampling rate : 48.0 KHz
Bit depth : 16 bits
Compression mode : Lossy
Stream size : 57.9 MiB (14%)
Alignment : Split accross interleaves
Interleave, duration : 42 ms (1.00 video frame)
Interleave, preload duration : 500 ms
Audio #2
ID : 2
Format : MPEG Audio
Format version : Version 1
Format profile : Layer 3
Mode : Joint stereo
Mode extension : MS Stereo
Codec ID : 55
Codec ID/Hint : MP3
Duration : 42mn 8s
Bit rate mode : Constant
Bit rate : 128 Kbps
Channel(s) : 2 channels
Sampling rate : 44.1 KHz
Compression mode : Lossy
Stream size : 38.6 MiB (10%)
Alignment : Aligned on interleaves
Interleave, duration : 26 ms (0.63 video frame)
Interleave, preload duration : 522 ms
Writing library : LAME3.97

О переводе:

Перевод: Светлана Самойленко
Озвучивание: Юлия Котурбаш, Елена Григорьева, Олекса Мельник, Александр Фурман

Список серий

01. Пораженный / Strike

Скриншоты

-

Раздача ведется путем добавления новых серий, при каждом добавлении создается новый торрент. Чтобы начать докачку новой серии, пользова

- Остановить скачивание.
- Удалить старый торрент у себя из клиента (старые серии удалять не надо).
- Скачать новый торрент и запустить его у себя в клиенте вместо старого, при этом указать клиенту путь в старую папку куда и должно происходить скачивание новых серий.
Ваш клиент при этом должен произвести хеширование (проверку) старой папки (если не производит сам - помогите ему сделать это), и будет докачивать только те серии которых у вас еще нет. Старые серии при этом не удаляются, а продолжают раздаваться!
Если вы уже удалили старые серии, то предотвратить повторную закачку старых серий можно, отжав галочку в соответствующих местах при запуске нового торрента. По возможности, желательно не удалять старые серии как можно дольше, чтобы релизер не столько продолжал раздавать старые серии, а смог сконцентрироваться на новых.
-
Показать сообщения:    

Текущее время: 25-Сен 14:14

Часовой пояс: UTC - 1


Вы не можете начинать темы
Вы не можете отвечать на сообщения
Вы не можете редактировать свои сообщения
Вы не можете удалять свои сообщения
Вы не можете голосовать в опросах
Вы не можете прикреплять файлы к сообщениям
Вы не можете скачивать файлы

!ВНИМАНИЕ!
Сайт не предоставляет электронные версии произведений, а занимается лишь коллекционированием и каталогизацией ссылок, присылаемых и публикуемых на форуме нашими читателями. Если вы являетесь правообладателем какого-либо представленного материала и не желаете, чтобы ссылка на него находилась в нашем каталоге, свяжитесь с нами, и мы незамедлительно удалим ее. Файлы для обмена на трекере предоставлены пользователями сайта, и администрация не несет ответственности за их содержание. Просьба не заливать файлы, защищенные авторскими правами, а также файлы нелегального содержания!