Ивановский Торрент трекер
Яндекс.Погода
 

[Цитировать]
HUNTER

Последний сентябрь / The Last September
Страна: Франция, Великобритания, Ирландия
Жанр: Мелодрама, Драма, История
Год выпуска: 1999
Продолжительность: 01:43:13
Перевод: Профессиональный (многоголосый закадровый) НТВ+
Cубтитры: русские, английские, французские
Оригинальная аудиодорожка: английский
Режиссер: Дебора Уорнер / Deborah Warner
В ролях: Кили Хоуз, Майкл Гэмбон, Мэгги Смит, Дэвид Теннант, Джейн Биркин, Фиона Шоу, Том Хикки, Ричард Роксбур, Гэри Лайдон, Ламберт Уилсон и др.
Описание: Южная Ирландия, 20-е годы ХХ века. Закат британского правления. Пожилая аристократическая пара проживает со своими племянниками в старом загородном особняке. Девушка доставляет своим покровителям немало хлопот, увлекшись простым солдатом британской армии, а также другом детства, ставшим боевиком IRA.
Доп. информация по релизу: Материалы предоставлены triny123 и администрацией группы DAVID TENNANT ASYLUM. Субтитры подготовлены SigizmundEMA на основе озвучки НТВ+, редакция субтитров и реавторинг DVD - night_spell. Сравнение с предыдущим релизом SATRip - screenshotcomparison.com
Бонусы: Интервью с Фионой Шоу и режиссёром Деборой Уорнер, трейлер (открывается нажатием на значок Trimark в меню). Без обоих интервью фильм умещается на DVD5.
Меню: частично анимированное и озвученное
Сэмпл: sendfile.su
Качество видео: DVD9 (Custom)
Формат видео: DVD Video
Видео: MPEG-2, NTSC 4:3 letterbox (720x480), 23.976 fps, 4814Kbps
Аудио 1: Russian AC3, DD 2.0, 48000Hz, 192Kbps
Аудио 2: English AC3, DD 5.1, 48000Hz, 448Kbps
Формат субтитров: prerendered (IDX+SUB)

Soft + Скриншот финального проекта

Subtitle Workshop
MaestroSBT
PgcDemux
MuxMan
DVDRemake Pro

DVDInfo

Title:
Size: 5.01 Gb ( 5 249 098 KBytes ) - DVD-9
Enabled regions: 1, 2, 3, 4, 5, 6, 7, 8
VTS_01 :
Play Length: 01:43:13
Video: NTSC 4:3 (720x480) VBR
Audio:
Russian (Dolby AC3, 2 ch)
English (Dolby AC3, 6 ch)
Subtitles:
English
Francais
Russian
VTS_02 :
Play Length:
Video: NTSC 4:3 (720x480) VBR
Audio:
English (Dolby AC3, 2 ch)
Subtitles:
English
English
English
VTS_03 :
Play Length:
Video: NTSC 4:3 (720x480) VBR
Audio:
English (Dolby AC3, 2 ch)
Subtitles:
English
English
English
VTS_04 :
Play Length: 00:02:15
Video: NTSC 4:3 (720x480) VBR
Audio:
English (Dolby AC3, 2 ch)
Subtitles:
English
English
English
VTS_05 :
Play Length:
Video: NTSC 4:3 (720x480) VBR
Audio:
English (Dolby AC3, 6 ch)
Subtitles:
English
English
English
VTS_06 :
Play Length: 00:12:07
Video: NTSC 4:3 (720x480) VBR
Audio:
English (Dolby AC3, 2 ch)
Subtitles:
English
English
English
VTS_07 :
Play Length: 00:08:55
Video: NTSC 4:3 (720x480) VBR
Audio:
English (Dolby AC3, 2 ch)
Subtitles:
English
English
English
VTS_08 :
Play Length:
Video: NTSC 4:3 (720x480) VBR
Audio:
English (Dolby AC3, 2 ch)
Subtitles:
English
English
English

MediaInfo

Общее
Полное имя : C:\Users\vaio\Desktop\VIDEO_TS\VTS_01_2.VOB
Формат : MPEG-PS
Размер файла : 1024 Мбайт
Продолжительность : 23 м.
Режим общего битрейта : Переменный
Общий поток : 6091 Кбит/сек
Видео
Идентификатор : 224 (0xE0)
Формат : MPEG Video
Версия формата : Version 2
Профиль формата : Main@Main
Параметр BVOP формата : Да
Параметр матрицы формата : Выборочная
Параметр GOP формата : Variable
Продолжительность : 23 м.
Вид битрейта : Переменный
Битрейт : 5330 Кбит/сек
Максимальный битрейт : 9800 Кбит/сек
Ширина : 720 пикселей
Высота : 480 пикселей
Соотношение сторон : 4:3
Частота кадров : 23,976 кадра/сек
Стандарт вещания : Component
Цветовое пространство : YUV
Субдискретизация насыщенности : 4:2:0
Битовая глубина : 8 бит
Тип развёртки : Прогрессивная
Порядок развёртки : 2:3 Pulldown
Метод сжатия : С потерями
Бит/(Пиксели*Кадры) : 0.643
Размер потока : 896 Мбайт (87%)
Основные цвета : BT.601 NTSC
Характеристики трансфера : BT.601
Коэффициенты матрицы : BT.601
Аудио #1
Идентификатор : 189 (0xBD)-128 (0x80)
Формат : AC-3
Формат/Информация : Audio Coding 3
Расширение режима : CM (complete main)
Параметр Endianness формата : Big
Режим смешивания : DVD-Video
Продолжительность : 23 м.
Вид битрейта : Постоянный
Битрейт : 192 Кбит/сек
Каналы : 2 канала
Расположение каналов : Front: L R
Частота : 48,0 КГц
Битовая глубина : 16 бит
Метод сжатия : С потерями
Задержка видео : -515 мс.
Размер потока : 32,3 Мбайт (3%)
Аудио #2
Идентификатор : 189 (0xBD)-129 (0x81)
Формат : AC-3
Формат/Информация : Audio Coding 3
Расширение режима : CM (complete main)
Параметр Endianness формата : Big
Режим смешивания : DVD-Video
Продолжительность : 23 м.
Вид битрейта : Постоянный
Битрейт : 448 Кбит/сек
Каналы : 6 каналов
Расположение каналов : Front: L C R, Side: L R, LFE
Частота : 48,0 КГц
Битовая глубина : 16 бит
Метод сжатия : С потерями
Задержка видео : -643 мс.
Размер потока : 75,3 Мбайт (7%)
Текст #1
Идентификатор : 189 (0xBD)-34 (0x22)
Формат : RLE
Формат/Информация : Run-length encoding
Режим смешивания : DVD-Video
Задержка видео : 901 мс.
Текст #2
Идентификатор : 189 (0xBD)-32 (0x20)
Формат : RLE
Формат/Информация : Run-length encoding
Режим смешивания : DVD-Video
Текст #3
Идентификатор : 189 (0xBD)-33 (0x21)
Формат : RLE
Формат/Информация : Run-length encoding
Режим смешивания : DVD-Video
Меню

Скриншоты меню


Скриншоты

Скриншоты доп. материалов

Показать сообщения:    

Текущее время: 21-Окт 16:58

Часовой пояс: UTC - 1


Вы не можете начинать темы
Вы не можете отвечать на сообщения
Вы не можете редактировать свои сообщения
Вы не можете удалять свои сообщения
Вы не можете голосовать в опросах
Вы не можете прикреплять файлы к сообщениям
Вы не можете скачивать файлы

!ВНИМАНИЕ!
Сайт не предоставляет электронные версии произведений, а занимается лишь коллекционированием и каталогизацией ссылок, присылаемых и публикуемых на форуме нашими читателями. Если вы являетесь правообладателем какого-либо представленного материала и не желаете, чтобы ссылка на него находилась в нашем каталоге, свяжитесь с нами, и мы незамедлительно удалим ее. Файлы для обмена на трекере предоставлены пользователями сайта, и администрация не несет ответственности за их содержание. Просьба не заливать файлы, защищенные авторскими правами, а также файлы нелегального содержания!