Ивановский Торрент трекер
Яндекс.Погода
Статистика раздачи
Размер:  3.97 GB   |    Зарегистрирован:  1 год 10 месяцев   |    Скачан:  3 раза

Полного источника не было: 1 год 9 месяцев

 
     
 
 
 

[Цитировать]
HUNTER

Последний охотник на ведьм / The Last Witch Hunter- Страна: США, Китай, Канада
Жанр: фэнтези, боевик, приключения
Год выпуска: 2015
Продолжительность: 01:46:26
Перевод: Профессиональный (дублированный) iTunes Russia-Cубтитры: нет
Оригинальная аудиодорожка: нет-Режиссер: Брек Эйснер
В ролях: Вин Дизель, Роуз Лесли, Элайджа Вуд, Оулавюр Дарри Оулафссон, Рина Оуэн, Юли Энгельбрехт, Майкл Кейн, Джозеф Гилган, Исаак Де Банколе, Майкл Халсли-Описание: Современный мир скрывает множество секретов, но самым удивительным из них является то, что ведьмы до сих пор живут среди нас. Это злобные сверхъестественные существа, чья цель — наслать на мир смертоносную чуму. Армии охотников на ведьм сражались с ними на протяжении многих веков.
В наши дни остался всего лишь один охотник на ведьм, Колдер, которому однажды удалось убить всемогущую королеву ведьм. Но Колдер еще не знает, что королева воскресла и жаждет отомстить своему убийце.-Сэмпл-Качество видео: WEB-DL 1080p
Формат видео: MKV
Видео: Matroska, 1920x1080 at 24.000 fps, MPEG-4 AVC, 4849 kbps
Аудио: Russian: 48 kHz, AC3, 3/2 (L,C,R,l,r) + LFE ch, ~384.00 kbps avg |Дубляж, iTunes Russia|-

MediaInfo

Общее
Уникальный идентификатор : 180977923599115483721115276414296275643 (0x8827148A2AAB6386B46F28D820A03ABB)
Полное имя : The.Last.Witch.Hunter.2015.D.WEB-DL.1080p.mkv
Формат : Matroska
Версия формата : Version 4 / Version 2
Размер файла : 3,97 Гбайт
Продолжительность : 1 ч. 46 м.
Общий поток : 5340 Кбит/сек
Дата кодирования : UTC 2016-01-11 19:55:20
Программа кодирования : mkvmerge v6.5.0 ('Isn't she lovely') built on Oct 20 2013 12:50:05
Библиотека кодирования : libebml v1.3.0 + libmatroska v1.4.1
Видео
Идентификатор : 1
Формат : AVC
Формат/Информация : Advanced Video Codec
Профиль формата : High@L4
Параметр CABAC формата : Да
Параметр ReFrames формата : 4 кадра
Идентификатор кодека : V_MPEG4/ISO/AVC
Продолжительность : 1 ч. 46 м.
Битрейт : 4849 Кбит/сек
Ширина : 1920 пикселей
Высота : 1080 пикселей
Соотношение сторон : 16:9
Режим частоты кадров : Постоянный
Частота кадров : 24,000 кадра/сек
Цветовое пространство : YUV
Субдискретизация насыщенности : 4:2:0
Битовая глубина : 8 бит
Тип развёртки : Прогрессивная
Бит/(Пиксели*Кадры) : 0.097
Размер потока : 3,61 Гбайт (91%)
Язык : English
Default : Да
Forced : Нет
Цветовой диапазон : Limited
Основные цвета : BT.709
Характеристики трансфера : BT.709
Коэффициенты матрицы : BT.709
Аудио
Идентификатор : 2
Формат : AC-3
Формат/Информация : Audio Coding 3
Расширение режима : CM (complete main)
Параметр Endianness формата : Big
Идентификатор кодека : A_AC3
Продолжительность : 1 ч. 46 м.
Вид битрейта : Постоянный
Битрейт : 384 Кбит/сек
Каналы : 6 каналов
Расположение каналов : Front: L C R, Side: L R, LFE
Частота : 48,0 КГц
Метод сжатия : С потерями
Размер потока : 292 Мбайт (7%)
Язык : Russian
Default : Да
Forced : Нет

Скриншоты

[iv-torrents.ru].t53485.torrent
Торрент: Зарегистрирован [ 2016-01-21 07:08 ] · 259AED9AD4C11474F55F1C6BE5D1E2480D6FE19A

Скачать .torrent

Скачать

20 KB

Статус: проверено
Скачан: 3 раз
Размер: 3.97 GB
terms.php
Похожие темы


Показать сообщения:    

Текущее время: 15-Дек 16:12

Часовой пояс: UTC ± 0


Вы не можете начинать темы
Вы не можете отвечать на сообщения
Вы не можете редактировать свои сообщения
Вы не можете удалять свои сообщения
Вы не можете голосовать в опросах
Вы не можете прикреплять файлы к сообщениям
Вы можете скачивать файлы

!ВНИМАНИЕ!
Сайт не предоставляет электронные версии произведений, а занимается лишь коллекционированием и каталогизацией ссылок, присылаемых и публикуемых на форуме нашими читателями. Если вы являетесь правообладателем какого-либо представленного материала и не желаете, чтобы ссылка на него находилась в нашем каталоге, свяжитесь с нами, и мы незамедлительно удалим ее. Файлы для обмена на трекере предоставлены пользователями сайта, и администрация не несет ответственности за их содержание. Просьба не заливать файлы, защищенные авторскими правами, а также файлы нелегального содержания!