Ивановский Торрент трекер
Яндекс.Погода
 

[Цитировать]
mihis

Последний Дон / The Last Don«Power Isn't Everything... It's The Only Thing.»3 серииГод выпуска: 1997
Страна: США
Жанр: Гангстерская сага, криминал, драма
Продолжительность: 3х~01:25:20
Перевод: Профессиональный (многоголосый, закадровый) + Оригинал
Субтитры: Нет
Режиссер: Грэм Клиффорд
В ролях: Дэнни Айелло, Джо Мантенья, Джейсон Гедрик, Рори Коране, Дэрилл Ханна, Кирсти Элли.
Описание: Имя Марио Пьюзо не нуждается в рекламе. Потому что он автор знаменитого романа "Крестный отец". И в книге "Последний дон" он продолжает повествование о той же Семье - но тридцать лет спустя. Старый дон задумал подарить внукам счастливую судьбу богатых законопослушных граждан. Но события тридцатилетней давности вдруг отзываются кровавым эхом и могут привести к катастрофе. И только дон в силах предотвратить ее. Вопрос только: какой ценой - большой или малой кровью? Ведь это кровь Семьи...

Качество: DVDRip
Формат: AVI
Видео кодек: XviD
Аудио кодек: AC3
Видео: 688x512 (1.34:1), 25 fps, XviD MPEG-4 ~1567 kbps avg, 0.18 bit/pixel
Аудио: 48 kHz, AC3 Dolby Digital, 3/2 (L,C,R,l,r) + LFE ch, ~448 kbps Rus, Eng

MediaInfo

Posledniy Don 1_2 1997 DVDRip.avi
Format : AVI
Format/Info : Audio Video Interleave
File size : 1.46 GiB
Duration : 1h 24mn
Overall bit rate : 2 479 Kbps
Writing application : VirtualDubMod 1.6.0.0 SURROUND (build 2560/release)
Writing library : VirtualDubMod build 2560/release
Video
ID : 0
Format : MPEG-4 Visual
Format profile : Advanced Simple@L5
Format settings, BVOP : 1
Format settings, QPel : No
Format settings, GMC : No warppoints
Format settings, Matrix : Default (H.263)
Muxing mode : Packed bitstream
Codec ID : XVID
Codec ID/Hint : XviD
Duration : 1h 24mn
Bit rate : 1 568 Kbps
Width : 688 pixels
Height : 512 pixels
Display aspect ratio : 4:3
Frame rate : 25.000 fps
Color space : YUV
Chroma subsampling : 4:2:0
Bit depth : 8 bits
Scan type : Progressive
Compression mode : Lossy
Bits/(Pixel*Frame) : 0.178
Stream size : 947 MiB (63%)
Writing library : XviD 1.1.0 (UTC 2005-11-22)
Audio #1
ID : 1
Format : AC-3
Format/Info : Audio Coding 3
Mode extension : CM (complete main)
Format settings, Endianness : Big
Codec ID : 2000
Duration : 1h 24mn
Bit rate mode : Constant
Bit rate : 448 Kbps
Channel(s) : 6 channels
Channel positions : Front: L C R, Side: L R, LFE
Sampling rate : 48.0 KHz
Bit depth : 16 bits
Compression mode : Lossy
Stream size : 270 MiB (18%)
Alignment : Aligned on interleaves
Interleave, duration : 40 ms (1.00 video frame)
Interleave, preload duration : 512 ms
Audio #2
ID : 2
Format : AC-3
Format/Info : Audio Coding 3
Mode extension : CM (complete main)
Format settings, Endianness : Big
Codec ID : 2000
Duration : 1h 24mn
Bit rate mode : Constant
Bit rate : 448 Kbps
Channel(s) : 6 channels
Channel positions : Front: L C R, Side: L R, LFE
Sampling rate : 48.0 KHz
Bit depth : 16 bits
Compression mode : Lossy
Stream size : 270 MiB (18%)
Alignment : Aligned on interleaves
Interleave, duration : 40 ms (1.00 video frame)
Interleave, preload duration : 512 ms
--- Последний Дон 2 / The Last Don 2«Power. Passion. Betrayal. It's all in the family.»2 серииГод выпуска: 1998
Страна: США
Жанр: Гангстерская сага, криминал, драма
Продолжительность: 2х~01:25:20
Перевод: Профессиональный (многоголосый, закадровый) + Оригинал
Субтитры: Нет
Режиссер: Грем Клиффорд
В ролях: Джейсон Гедрик, Пэтси Кенсит, Джеймс Уайлдер, Джейсон Айзэкс, Дэвид Марсиано, Мишель Рене Томас, Конрад Данн, Дэнни Айелло, Джо Мантенья, Роберт Вул, Керсти Элли, Ричард С. Сарафьян, Ким Коутс, Эндрю Джексон, Дэвид Джанопулос, Дэниэл Мастроджорджо, Дэвид Хемблен.
Описание: Это продолжение нашумевшего фильма "Последний Дон", пользовавшегося огромным успехом во всем мире. Этот фильм насыщен огромным количеством сюжетных линий и героев.
Не лучшие времена переживает семья Клерикуцио: смерть "крестного" (Дэнни Айелло) позволила выйти из подполья врагам клана, начавшим его планомерное и безжалостное истребление. От рук "беспредельщиков" гибнут не только мужчины, но и невинные женщины. Страшная участь постигла и жену Кросса Де Лина (Джейсон Гедрик), вынужденного после этого занять место покойного дона. Оправившись от первоначального шока, семья Клерикуцио выходит на тропу войны...
Повествование, плавно переходит от одного героя к другому, полностью увлекает зрителя и окунает его в сердце могущественного мафиозного клана выходцев из Сицилии. Эта грозная империя построена на костях конкурентов, а люди, создавшие ее, не жалеют никого, даже своих близких. "Последний Дон-2" - это захватывающий рассказ о любви и соперничестве, о дружбе и предательстве, о стремлении к власти и деньгам, о мести и долге.

Качество: DVDRip
Формат: AVI
Видео кодек: XviD
Аудио кодек: AC3
Видео: 688x512 (1.34:1), 25 fps, XviD MPEG-4 ~1539 kbps avg, 0.17 bit/pixel
Аудио: 48 kHz, AC3 Dolby Digital, 3/2 (L,C,R,l,r) + LFE ch, ~448 kbps Rus, Eng

MediaInfo

Posledniy Don 2_2 1998 DVDRip.avi
Format : AVI
Format/Info : Audio Video Interleave
File size : 1.46 GiB
Duration : 1h 25mn
Overall bit rate : 2 450 Kbps
Writing application : VirtualDubMod 1.6.0.0 SURROUND (build 2560/release)
Writing library : VirtualDubMod build 2560/release
Video
ID : 0
Format : MPEG-4 Visual
Format profile : Advanced Simple@L5
Format settings, BVOP : 1
Format settings, QPel : No
Format settings, GMC : No warppoints
Format settings, Matrix : Default (H.263)
Muxing mode : Packed bitstream
Codec ID : XVID
Codec ID/Hint : XviD
Duration : 1h 25mn
Bit rate : 1 541 Kbps
Width : 688 pixels
Height : 512 pixels
Display aspect ratio : 4:3
Frame rate : 25.000 fps
Color space : YUV
Chroma subsampling : 4:2:0
Bit depth : 8 bits
Scan type : Progressive
Compression mode : Lossy
Bits/(Pixel*Frame) : 0.175
Stream size : 941 MiB (63%)
Writing library : XviD 1.1.0 (UTC 2005-11-22)
Audio #1
ID : 1
Format : AC-3
Format/Info : Audio Coding 3
Mode extension : CM (complete main)
Format settings, Endianness : Big
Codec ID : 2000
Duration : 1h 25mn
Bit rate mode : Constant
Bit rate : 448 Kbps
Channel(s) : 6 channels
Channel positions : Front: L C R, Side: L R, LFE
Sampling rate : 48.0 KHz
Bit depth : 16 bits
Compression mode : Lossy
Stream size : 273 MiB (18%)
Alignment : Aligned on interleaves
Interleave, duration : 40 ms (1.00 video frame)
Interleave, preload duration : 512 ms
Audio #2
ID : 2
Format : AC-3
Format/Info : Audio Coding 3
Mode extension : CM (complete main)
Format settings, Endianness : Big
Codec ID : 2000
Duration : 1h 25mn
Bit rate mode : Constant
Bit rate : 448 Kbps
Channel(s) : 6 channels
Channel positions : Front: L C R, Side: L R, LFE
Sampling rate : 48.0 KHz
Bit depth : 16 bits
Compression mode : Lossy
Stream size : 273 MiB (18%)
Alignment : Aligned on interleaves
Interleave, duration : 40 ms (1.00 video frame)
Interleave, preload duration : 512 ms


Показать сообщения:    

Текущее время: 11-Дек 04:17

Часовой пояс: UTC ± 0


Вы не можете начинать темы
Вы не можете отвечать на сообщения
Вы не можете редактировать свои сообщения
Вы не можете удалять свои сообщения
Вы не можете голосовать в опросах
Вы не можете прикреплять файлы к сообщениям
Вы не можете скачивать файлы

!ВНИМАНИЕ!
Сайт не предоставляет электронные версии произведений, а занимается лишь коллекционированием и каталогизацией ссылок, присылаемых и публикуемых на форуме нашими читателями. Если вы являетесь правообладателем какого-либо представленного материала и не желаете, чтобы ссылка на него находилась в нашем каталоге, свяжитесь с нами, и мы незамедлительно удалим ее. Файлы для обмена на трекере предоставлены пользователями сайта, и администрация не несет ответственности за их содержание. Просьба не заливать файлы, защищенные авторскими правами, а также файлы нелегального содержания!