Важное объявление!
У Нас Все раздачи мультитрекерные, при нуле пиров в релизах, можете смело вставать на закачку!
Статистика раздачи
Размер:     |    Зарегистрирован:     |    Скачан:     |   
Нет
 
     
 
 
Автор Сообщение

HUNTER

Стаж:
5 лет
Сообщений:
68391

Репутация: 101

[+] [-]
Вне форума [Профиль] [ЛС]

Последний воин / The Ultimate Warrior
Страна: США
Студия: Warner Bros. Pictures
Жанр: фантастика, боевик, постапокалипсис
Год выпуска: 1975
Продолжительность: 01:34:00
Перевод: Профессиональный (многоголосый закадровый) Петербург 5 канал
Cубтитры: английские
Оригинальная аудиодорожка: английский
Режиссер: Роберт Клауз / Robert Clouse
В ролях: Юл Бриннер, Макс фон Сюдов, Джоэнна Майлз, Уильям Смит, Ричард Келтон, Стивен МакХэтти, Даррел Зверлинг, Лэйн Брэдбери, Нэйт Эсформс, Мел Новак
Описание: В недалеком будущем почти все население Земли погибает от страшной эпидемии, и теперь в разрушенных мегаполисах занимаются грабежом воюющие друг с другом банды. Барон, глава одного из выживших кланов, создает на руинах Нью-Йорка небольшое укрепленное поселение. И один из его людей, ученый Кэл, находит способ на бесплодной почве вновь выращивать овощи. Однако рыскающие по округе люди бандита Кэррота пытаются прорваться в небольшой оазис, созданный Бароном, и ему приходится призвать на помощь опытного воина Карсона…
Доп. информация: За русскую дорожку спасибо hedgehot.

Sample
Тип релиза: WEB-DL 720p
Контейнер: MKV
Видео: MPEG4 AVC Video, H264, 16:9, 1270x720, 23.976 fps, 4029 kbps
Аудио: Russian (AC3, 2 ch, 192 kbps, 16 bits, 48.0 KHz) - MVO
Аудио 2: English (AC3, 2 ch, 192 kbps, 16 bits, 48.0 KHz) - оригинал
Формат субтитров: softsub (SRT)

MediaInfo

General
Unique ID : 177343751544791850366149755414090384608 (0x856B2A061008DEEAAB67D3E92B4484E0)
Complete name : E:\The Ultimate Warrior 1975 WEB-DL 720p.mkv
Format : Matroska
Format version : Version 4 / Version 2
File size : 2.96 GiB
Duration : 1h 34mn
Overall bit rate : 4 503 Kbps
Encoded date : UTC 2015-10-08 05:24:58
Writing application : mkvmerge v6.1.0 ('Old Devil') built on Mar 2 2013 14:32:37
Writing library : libebml v1.3.0 + libmatroska v1.4.0
Video
ID : 1
Format : AVC
Format/Info : Advanced Video Codec
Format profile : High@L3.1
Format settings, CABAC : No
Format settings, ReFrames : 2 frames
Format settings, GOP : N=1
Codec ID : V_MPEG4/ISO/AVC
Duration : 1h 34mn
Bit rate : 4 029 Kbps
Width : 1 270 pixels
Height : 720 pixels
Display aspect ratio : 16:9
Frame rate mode : Constant
Frame rate : 23.976 fps
Color space : YUV
Chroma subsampling : 4:2:0
Bit depth : 8 bits
Scan type : Progressive
Bits/(Pixel*Frame) : 0.184
Stream size : 2.65 GiB (89%)
Language : English
Default : Yes
Forced : No
Color primaries : BT.709
Transfer characteristics : BT.709
Matrix coefficients : BT.709
Audio #1
ID : 2
Format : AC-3
Format/Info : Audio Coding 3
Mode extension : CM (complete main)
Format settings, Endianness : Big
Codec ID : A_AC3
Duration : 1h 34mn
Bit rate mode : Constant
Bit rate : 192 Kbps
Channel count : 2 channels
Channel positions : Front: L R
Sampling rate : 48.0 KHz
Bit depth : 16 bits
Compression mode : Lossy
Stream size : 129 MiB (4%)
Language : Russian
Default : Yes
Forced : No
Audio #2
ID : 3
Format : AC-3
Format/Info : Audio Coding 3
Mode extension : CM (complete main)
Format settings, Endianness : Big
Codec ID : A_AC3
Duration : 1h 34mn
Bit rate mode : Constant
Bit rate : 192 Kbps
Channel count : 2 channels
Channel positions : Front: L R
Sampling rate : 48.0 KHz
Bit depth : 16 bits
Compression mode : Lossy
Stream size : 129 MiB (4%)
Language : English
Default : No
Forced : No
Text
ID : 4
Format : UTF-8
Codec ID : S_TEXT/UTF8
Codec ID/Info : UTF-8 Plain Text
Language : English
Default : No
Forced : No
Menu
00:00:00.000 : en:Chapter 1.
00:11:34.000 : en:Chapter 2.
00:19:27.000 : en:Chapter 3.
00:31:51.000 : en:Chapter 4.
00:40:42.000 : en:Chapter 5.
00:52:18.000 : en:Chapter 6.
00:59:49.000 : en:Chapter 7.
01:09:54.000 : en:Chapter 8.
01:22:26.000 : en:Chapter 9.

Скриншоты


_________________
Показать сообщения:    

Текущее время: Сегодня 01:56

Часовой пояс: GMT



Вы не можете начинать темы
Вы не можете отвечать на сообщения
Вы не можете редактировать свои сообщения
Вы не можете удалять свои сообщения
Вы не можете голосовать в опросах
Вы не можете прикреплять файлы к сообщениям
Вы не можете скачивать файлы